Portal - Cyber Team Saltar al contenido
News Ticker
  • News ticker sample
  • News ticker sample

    Comics  Red Hood And The Outlaws [1-31] [Volumen 2] [Español] [Mega]

    elnoruego
    Por elnoruego
    Con la peligrosa máscara negra derrotada, los proscritos se preparan para su viaje a Bana-Mighdall y los impactantes secretos del pasado de Artemisa salen a la luz. ¿Quién es este misterioso guerrero amazónico? ¿Cuál es su relación con la Mujer Maravilla? ¿Y qué hace que su búsqueda del Arco de Ra sea tan personal? ¡Respuestas a todo esto y más se revelan en una nueva aventura emocionante con tu banda favorita de inadaptados!
    Editorial: DC Comics
    Formato: CBR
    Tamaño:18-45mb
    idioma:español Red hood and the outlaws Rebirth #1 : http://ouo.io/u8HLr0
    1-10: http://ouo.io/hlnd4B
    11-20: http://ouo.io/vio7BMd
    Anual #1 : http://ouo.io/4XfKma
    #21 : http://ouo.io/WjLR4c
    #22: http://ouo.io/CokhFn
    #23: https://ouo.io/XyziXP
    #24: https://ouo.io/bPqZ5Y
    #25: https://ouo.io/9GJzP1
    #26: https://ouo.io/HGI485
    #27: https://ouo.io/pgKoJx
    #28: https://ouo.io/39Qhvtu
    #29: https://ouo.io/MNPpWe
    #30: https://ouo.io/6Z1HgF
    #31: https://ouo.io/qIuWhQ
    Anual #2: http://tnhs8n/    

    Comics  Tony Stark: Iron Man Vol.1 [1-8] 2018] [Español] [Mega]

    elnoruego
    Por elnoruego
    Sinopsis: Desde la cúspide de los sueños del mañana hasta la vanguardia de la imaginación, ¡un hombre siempre se eleva a la vanguardia de la aventura! Tu sabes su nombre Tony Stark es Iron Man. Y Iron Man ... es una idea. Siempre cambiando. Siempre evolucionando. Una idea sin limite! ¡Ve de la mano con Dan Slott (Amazing Spider-man) y Valerio Schiti (Guardians of The Galaxy) mientras impulsan al último Héroe hecho y derecho a nuevas alturas de inventiva! Tony Stark es Iron Man. El futuro es ahora. Correa adentro!
    Editorial: Marvel
    Formato: CBR
    Tamaño:19-34mb
    idioma:español
    #1: http://ouo.io/6RCZFT
    #2: http://ouo.io/LFrSBJ
    #3: http://ouo.io/nL9pUh
    #4: https://ouo.io/fRQos0
    #5: https://ouo.io/8nKac2
    #6: https://ouo.io/o3OflO
    #7: https://ouo.io/TVCmfg
    #8: https://ouo.io/Vxb7Rt    

    Comics  Suicide Squad [1-50] [Renacimiento ] [Español] [Mega]

    elnoruego
    Por elnoruego
    Soldado. Héroe de guerra. Traidor. El capitán Rick Flag fue uno de los comandantes militares más grande de EEUU antes de que fuera desterrado a una prisión militar secreta. Pero luego de años de aislamiento, la vida de Flag cambia para siempre cuando una mujer llamada Amanda Waller le ofrece redención a cambio de encargarse del trabajo más peligroso en todo el universo DC: mantener al Escuadrón Suicida vivo!
    Editorial: DC Comics
    Formato: CBR
    Tamaño:13-43mb
    idioma:español
    Suicide Squad Rebirth #1 : http://ouo.io/5hXn6
    1-10: http://ouo.io/7cLeCq
    11-20: http://ouo.io/hMl82C
    21-26: http://ouo.io/9HMUJp
    27-30: http://ouo.io/zj2mq1
    31-40: http://ouo.io/YMnSrf
    #41: http://ouo.io/GeeoDU
    #42: http://ouo.io/9VHXhw
    #43: http://ouo.io/usRNMl
    #44: http://ouo.io/u2hLj1
    #45: http://ouo.io/Dy6Tjp
    #46: https://ouo.io/YCpVwU
    #47: https://ouo.io/b76vQp
    #48: https://ouo.io/wp5YvD7
    #49: https://ouo.io/r9TpvW9
    #50: https://ouo.io/QuxHrR    

    Latino  Yu-Gi-Oh!: El Lado Oscuro de las Dimensiones (2016) [AC3 5.1] [SRT] [Extraídos de iTunes]

    Kizunaxx
    Por Kizunaxx
    “Yu-Gi-Oh!: The Dark Side of Dimensions” se lleva a cabo un año después de los eventos ocurridos en Yu-Gi-Oh! Duel Monsters. KaibaCorp está recuperando las piezas del Rompecabezas del Milenio el cuál se encuentra en las ruinas de la Cámara del Milenio. Kaiba planea revivir a Atem para saldar de una vez por toda su rivalidad. Diva interrumpe la operación y reta a Kaiba a un Duelo dónde roba dos de las piezas del recién recuperado rompecabezas. Yugi y sus amigos por otro lado se encuentran pensando que harán después de graduarse, sin saber que el duelo más importante de todos está por comenzar. ¡El riesgo nunca había sido tan alto, ni el nivel de los rivales, un movimiento equivocado y todo terminará! “Yu-Gi-Oh!: The Dark Side of Dimensions” es un regreso espectacular de la franquicia con varios de los personajes más queridos de los fans como Yugi Muto, Seto Kaiba, y sus amigos Joey, Tristan, Téa y Bakura.     Nombre: Yu-Gi-Oh!: The Dark Side of Dimensions Año:  2016 Peso: 354 MB Formato: AC3 5.1
    Fuente: iTunes, se trata del doblaje basura de Optimedia Bond. Publicado por 4k Media.   Format : AC-3 Format/Info : Audio Coding 3 Commercial name : Dolby Digital Duration : 2 h 8 min Bit rate mode : Constant Bit rate : 384 kb/s Channel(s) : 6 channels Channel layout : L R C LFE Ls Rs Sampling rate : 48.0 kHz Frame rate : 31.250 FPS (1536 SPF) Bit depth : 16 bits Compression mode : Lossy Stream size : 354 MiB (100%) Service kind : Complete Main     Contenido Oculto
    Reacciona para ver el contenido oculto.    

    Como hacer WEBRip de Netflix

    New_Vicious
    Por New_Vicious
    Bueno como muchos me han preguntado como hacerlo aquí les dejo una forma fácil y sencilla de hacerlo
    Nota esto es un webrip no un webdl, para el webdl es por otro programa y linea de comando y no esta restringido a 1 solo sitio así que por ese método no me pregunten que no les voy a decir nada ni a pasarlo   Primero bajamos este programa y lo instalamos y ejecutamos   Contenido Oculto
    Reacciona para ver el contenido oculto.   y veremos esta ventana     luego vamos a donde dice Tools - Log In     y nos aparece otra ventana como esta     ponemos los datos de la cuenta y seleccionamos perfil y esperamos hasta que se cierre sola y listo ahora vamos a netflix y buscamos una serie y copiamos su url que seria como el siguiente ejemplo https://www.netflix.com/watch/80186864 y la pegamos en el programa a través del botón + Paste URL y después de un rato se vera así     después vamos a esta parte y configuramos a nuestro gusto     una vez configurado todo solo le damos al botón de Download y empezara a hacer el webrip una vez terminado de hacer lo encontraras por defecto en la carpeta de Videos bueno eso seria todo para hacer los rips y recuerden compartir lo que bajen ^^.

    Comics  Thor (Marvel Fresh Start) [1-10] [Español [Mega]

    elnoruego
    Por elnoruego
    escrito por Jason Aaron con arte de Mike Del Mundo, ve el comienzo de una nueva misión para God of Thunder. Los artefactos de Asgard se han dispersado por toda la Tierra, y para reclamarlos, Thor tendrá que enfrentar algunas verdades desagradables … ¡como el costo de producción de cientos de nuevos martillos! Y necesitará cada uno de ellos si va a detener lo imparable cuando nada menos que el Juggernaut se une a la refriega.

    Tamaño:16-21mb
    Formato:Cbr
    idioma:español
    Editorial:Marvel

    Thor #1: ouo.io/dwFJCg
    Thor #2: ouo.io/iMvnOo
    Thor #3: ouo.io/RfOjRO
    Thor #4: ouo.io/iQSwtUg
    Thor #5: http://ouo.io/fF49Z
    Thor #6: http://ouo.io/w1UWrM
    Thor #7: http://ouo.io/Ph7Wyz
    Thor #8: https://ouo.io/NdFEdG
    Thor #9: https://ouo.io/Kuf9Eg
    Thor #10: https://ouo.io/YJrK9u

    Latino  Luces en el Cielo (Fireworks) (2017) [AC3 5.1] [SRT] [Extraídos de Netflix]

    Kizunaxx
    Por Kizunaxx
    Nazuna está triste porque le obligan a cambiar de escuela. La niña planea fugarse junto a su compañero Norimichi, pero su madre los pilla y la arrastra a casa. Todo podría haber acabado allí, pero el hallazgo de una misteriosa esfera luminosa abre un portal en el tiempo, haciendo posible que la historia tenga otro final...     Nombre: Uchiage Hanabi, Shita kara miru ka? Yoko kara miru ka? Año: 2017 Peso: 247 MB Formato: AC3 5.1   Format : AC-3 Format/Info : Audio Coding 3 Commercial name : Dolby Digital Duration : 1 h 30 min Bit rate mode : Constant Bit rate : 384 kb/s Channel(s) : 6 channels Channel layout : L R C LFE Ls Rs Sampling rate : 48.0 kHz Frame rate : 31.250 FPS (1536 SPF) Bit depth : 16 bits Compression mode : Lossy Stream size : 247 MiB (100%) Service kind : Complete Main     Contenido Oculto
    Reacciona para ver el contenido oculto.

×