Portal - Cyber Team Saltar al contenido
News Ticker
  • News ticker sample
  • News ticker sample

    Latino  Mary y la Flor de la Hechicera (Meari to Majo no Hana) (2017) [AC3 5.1] [SRT] [Extraídos de iTunes]

    Kizunaxx
    Por Kizunaxx
    Mary es una niña que vive con su tía abuela Charlotte en el campo, donde no pasa casi nada. Un día sigue a un misterioso gato hasta el bosque y descubre un viejo palo de escoba y una extraña flor que sólo florece cada siete años en ese mismo bosque. El palo de escoba y la flor llevarán a Mary por encima de las nubes hasta Endor College, una escuela de magia dirigida por Madam Mumblechook y el brillante Doctor Dee. Pero allí suceden cosas extrañas y Mary tendrá que arriesgar su vida para que todo vaya bien.     Nombre: Meari to majo no hana Año: 2017 Peso: 282 MB Formato: AC3 5.1   Format : AC-3 Format/Info : Audio Coding 3 Commercial name : Dolby Digital Duration : 1 h 42 min Bit rate mode : Constant Bit rate : 384 kb/s Channel(s) : 6 channels Channel layout : L R C LFE Ls Rs Sampling rate : 48.0 kHz Frame rate : 31.250 FPS (1536 SPF) Bit depth : 16 bits Compression mode : Lossy Stream size : 282 MiB (100%) Service kind : Complete Main     Contenido Oculto
    Reacciona para ver el contenido oculto.  

    BDRip  A New Experience - Overwatch short [GuiltyK]

    didclode1981
    Por didclode1981
    A New Experience - Overwatch short [GuiltyK]   Artista: guiltyk Genero: Hentai, SFM Lenguage: English Peso: 113 MB Pantalla: 720p         A New Experience - Overwatch short [GuiltyK]   Utilidades 7-zip IrfanView (64-bit) IrfanView graphic viewer K-Lite Codec Pack Mega VLC media player SMPlayer MediaInfo

    Latino  La Tumba de las Luciérnagas (Hotaru No Haka) (1988) [AC3 5.1] [SRT] [Extraído del BluRay]

    Kizunaxx
    Por Kizunaxx
    Segunda Guerra Mundial (1939-1945). Seita y Setsuko son hijos de un oficial de la marina japonesa que viven en Kobe. Un día, durante un bombardeo, no consiguen llegar a tiempo al búnker donde su madre los espera. Cuando después buscan a su madre, la encuentran malherida en la escuela, que ha sido convertida en un hospital de urgencia.
        Nombre: Hotaru No Haka Año: 1988 Peso: 284 MB Formato: AC3 5.1   Format : AC-3 Format/Info : Audio Coding 3 Commercial name : Dolby Digital Duration : 1 h 28 min Bit rate mode : Constant Bit rate : 448 kb/s Channel(s) : 6 channels Channel layout : L R C LFE Ls Rs Sampling rate : 48.0 kHz Frame rate : 31.250 FPS (1536 SPF) Bit depth : 16 bits Compression mode : Lossy Stream size : 284 MiB (100%) Service kind : Complete Main     Contenido Oculto
    Reacciona para ver el contenido oculto.

    Latino  Se Levanta El Viento (Kaze Tachinu) (2013) [SRT] [AC3 2.0] [Extraídos del DVD]

    Kizunaxx
    Por Kizunaxx
    Jiro Horikoshi, que sueña con volar y diseñar hermosos aviones, se inspira en el famoso diseñador aeronáutico italiano Caproni. Corto de vista desde niño y por ello incapaz de volar, se une a la división aeronáutica de una compañía de ingeniería en 1927. Su genio pronto es reconocido y se convierte en uno de los más prestigiosos diseñadores aeronáuticos. Film biográfico que recrea hechos históricos que marcaron su vida, como el terremoto de Kanto de 1923, la Gran Depresión, la epidemia de tuberculosis y la entrada de Japón en la Segunda Guerra Mundial.     Nombre: Kaze Tachinu Año: 2013 Peso: 174 MB Formato: AC3 2.0   Format : AC-3 Format/Info : Audio Coding 3 Commercial name : Dolby Digital Duration : 2 h 6 min Bit rate mode : Constant Bit rate : 192 kb/s Channel(s) : 2 channels Channel layout : L R Sampling rate : 48.0 kHz Frame rate : 31.250 FPS (1536 SPF) Bit depth : 16 bits Compression mode : Lossy Stream size : 174 MiB (100%) Service kind : Complete Main   Contenido Oculto
    Reacciona para ver el contenido oculto.  

    Latino  Nausicaa del Valle del Viento (Kaze no tani no nausicaa) (1984) [AC3 2.0] [SUP] [Extraídos del BluRay]

    Kizunaxx
    Por Kizunaxx
    En un futuro lejano, mil años después de una guerra de carácter apocalíptico, la Tierra aparece cubierta de bosques plagados de hongos venenosos y de insectos gigantescos. Los hombres han sido diezmados; los supervivientes viven en algunos poblados aislados y sobreviven a duras penas en las cercanías de un bosque contaminado con gases tóxicos e insectos mutantes gigantes, que cubren gran parte de la Tierra. Nausicaä es la princesa de El Valle de Viento, un reino minúsculo, rodeado de reinos más poderosos y hostiles. Es una guerrera que sabe pilotar naves, pero es también compasiva, tanto que se resiste a ver a los insectos como enemigos, sobre todo a los Ohms, artrópodos gigantescos y temibles por los que siente una extraña simpatía. La crisis estalla cuando el reino vecino de Tolmekia, encabezado por la princesa Kushana, invade El Valle del Viento.     Nombre: Kaze no Tani no Naushika Año: 1984 Peso: 160 MB Formato: AC3 2.0   Format : AC-3 Format/Info : Audio Coding 3 Commercial name : Dolby Digital Duration : 1 h 57 min Bit rate mode : Constant Bit rate : 192 kb/s Channel(s) : 2 channels Channel layout : L R Sampling rate : 48.0 kHz Frame rate : 31.250 FPS (1536 SPF) Bit depth : 16 bits Compression mode : Lossy Stream size : 161 MiB (100%) Service kind : Complete Main     Contenido Oculto
    Reacciona para ver el contenido oculto.

    Latino  Dragon Ball GT: La legendaria esfera de 4 estrellas (1997) [AC3 2.0] [Extraído del BluRay de Zima]

    Kizunaxx
    Por Kizunaxx
    Han pasado 100 años desde la derrota de Baby, la única de los guerreros Z con vida es Pan que ahora es una anciana que vive con su nieto Son Goku Jr. Pan intenta entrenarle para que se haga fuerte, pero el chico parece no haber heredado las dotes de lucha de los Saiyajin. Un día uno de los matones de la escuela le roba un bolígrafo de juguete a Goku Jr., sin que este oponga resistencia. Al enterarse, Pan se enfurece tanto que cae víctima de una insuficiencia cardíaca y es llevada al hospital. Entonces Goku Jr. decide ir a buscar las bolas de dragón de las que tanto habla su abuela y pedir al dragón que la cure. Así emprende la partida hacia el monte Paoz donde está la cabaña de su tatarabuelo Goku; De camino se encuentra con Puck, quien decide acompañarlo.     Nombre: Dragon Ball GT: A Hero's Legacy Año: 1997 Peso: 60 MB Formato: AC3 2.0   Format : AC-3 Format/Info : Audio Coding 3 Duration : 44 min 11 s Bit rate mode : Constant Bit rate : 192 kb/s Channel(s) : 2 channels Channel positions : Front: L R Sampling rate : 48.0 kHz Frame rate : 31.250 FPS (1536 SPF) Bit depth : 16 bits Compression mode : Lossy Stream size : 60.7 MiB (100%)     Contenido Oculto
    Reacciona para ver el contenido oculto.  

    Latino  Una Voz Silenciosa (Koe No Katachi) (2016) [AC3 5.1] [SUP] [Extraídos del BluRay]

    Kizunaxx
    Por Kizunaxx
    Shoya era un niño que molestó a Shoko la nueva niña del salón por ser sorda. Las burlas de este continuaron hasta que Shoko se cambió de escuela. Varios años después un atormentado Shoya busca reencontrarse con su ex-compañera y redimirse ¿Podrá ella perdonarlo o será demasiado tarde?
          Nombre: Koe No Katachi Año: 2016 Peso: 417 MB Formato: AC3 5.1 Fuente: Extraído del aporte de New Vicious y publicado aquí con su permiso.   Format : AC-3 Format/Info : Audio Coding 3 Commercial name : Dolby Digital Duration : 2 h 10 min Bit rate mode : Constant Bit rate : 448 kb/s Channel(s) : 6 channels Channel layout : L R C LFE Ls Rs Sampling rate : 48.0 kHz Frame rate : 31.250 FPS (1536 SPF) Bit depth : 16 bits Compression mode : Lossy Stream size : 417 MiB (100%)         Contenido Oculto
    Reacciona para ver el contenido oculto.

×