Portal - Cyber Team Saltar al contenido
News Ticker
  • News ticker sample
  • News ticker sample

    Latino  El Increíble Castillo Vagabundo (Hauru no Ugoku Shiro) (2004) [AC3 5.1] [Extraído del BluRay]

    Kizunaxx
    Por Kizunaxx
    Narra la historia de Sophie, una joven sobre la que pesa una horrible maldición que le confiere el aspecto de una anciana. Sophie decide pedir ayuda al mago Howl, que vive en un castillo ambulante, pero tal vez sea Howl quien necesite la ayuda de Sophie.
          Nombre: Hauru no Ugoku Shiro Año: 2004 Peso: 382 MB Formato: AC3 5.1 Format : AC-3 Format/Info : Audio Coding 3 Format settings, Endianness : Big Duration : 1 h 59 min Bit rate mode : Constant Bit rate : 448 kb/s Channel(s) : 6 channels Channel positions : Front: L C R, Side: L R, LFE Sampling rate : 48.0 kHz Frame rate : 31.250 FPS (1536 SPF) Bit depth : 16 bits Compression mode : Lossy Stream size : 382 MiB (100%)     Contenido Oculto
    Reacciona para ver el contenido oculto.

    Latino  El Castillo De Cagliostro (Rupan Sansei: Kariosutoro no Shiro) (1979) (Redoblaje de Zima) [AC3 2.0] [Extraído del DVD]

    Kizunaxx
    Por Kizunaxx
    Lupin, un elegante y atlético ladrón, y su compañero Jigen viajan al pequeño ducado europeo de Cagliostro. Allí ayudarán a la bella Clarice, que intenta librarse del temible Conde Cagliostro, e intentarán resolver el misterio de un tesoro oculto que data del siglo XV.     Nombre: Rupan Sansei: Kariosutoro no Shiro Año: 1979 Peso: 137 MB Formato: AC3 2.0   Format : AC-3 Format/Info : Audio Coding 3 Format settings, Endianness : Big Duration : 1 h 39 min Bit rate mode : Constant Bit rate : 192 kb/s Channel(s) : 2 channels Channel positions : Front: L R Sampling rate : 48.0 kHz Frame rate : 31.250 FPS (1536 SPF) Bit depth : 16 bits Compression mode : Lossy Stream size : 137 MiB (100%)     Contenido Oculto
    Reacciona para ver el contenido oculto.  

    Latino  El Cuento de la Princesa Kaguya (Kaguya-hime No Monogatari) (2013) [AC3 5.1] [Extraído del DVD]

    Kizunaxx
    Por Kizunaxx
    Basada en un cuento popular japonés anónimo del siglo IX, "El cortador de bambú". La historia comienza cuando una pareja de ancianos campesinos encuentra a una niña diminuta dentro de una planta de bambú, y deciden adoptarla como si fuera su hija. Pasan los años, y rápidamente se convierte en una hermosa mujer pretendida por muchos hombres poderosos.     Nombre: Kaguya-hime No Monogatari Año: 2013 Peso: 441 MB Formato: AC3 5.1   Format : AC-3 Format/Info : Audio Coding 3 Format settings, Endianness : Big Duration : 2 h 17 min Bit rate mode : Constant Bit rate : 448 kb/s Channel(s) : 6 channels Channel positions : Front: L C R, Side: L R, LFE Sampling rate : 48.0 kHz Frame rate : 31.250 FPS (1536 SPF) Bit depth : 16 bits Compression mode : Lossy Stream size : 441 MiB (100%)   Contenido Oculto
    Reacciona para ver el contenido oculto.  

    Latino  La Tumba de las Luciérnagas (Hotaru No Haka) (1988) [AC3 2.0] [Extraído del DVD]

    Kizunaxx
    Por Kizunaxx
    Segunda Guerra Mundial (1939-1945). Seita y Setsuko son hijos de un oficial de la marina japonesa que viven en Kobe. Un día, durante un bombardeo, no consiguen llegar a tiempo al búnker donde su madre los espera. Cuando después buscan a su madre, la encuentran malherida en la escuela, que ha sido convertida en un hospital de urgencia.   Nombre: Hotaru No Haka Año: 1988 Peso: 121 MB Formato: AC3 2.0     Format : AC-3 Format/Info : Audio Coding 3 Format settings, Endianness : Big Duration : 1 h 28 min Bit rate mode : Constant Bit rate : 192 kb/s Channel(s) : 2 channels Channel positions : Front: L R Sampling rate : 48.0 kHz Frame rate : 31.250 FPS (1536 SPF) Bit depth : 16 bits Compression mode : Lossy Stream size : 121 MiB (100%)     Contenido Oculto
    Reacciona para ver el contenido oculto.      

    Comics  Damage 1-12 + Anual [Dc Universe] [Español] [Mega]

    elnoruego
    Por elnoruego
    El daño puede romper su camino a través de una zona de guerra, ¿pero puede abrirse paso a través del Escuadrón Suicida? El coronel Jonas se enfrenta a Amanda Waller en una carrera para ver quién puede llegar primero a Damage. Y mientras Waller envía Harley Quinn, Deadshot, Parasite y Giganta para capturar Damage por cualquier medio necesario, el Coronel Jonas tiene su propio plan perverso en juego Tamaño:19-27mb
    Formato:Cbr
    Editorial:Dc Comics
    #1: http://ouo.io/HpSNk4
    #2: http://ouo.io/b1UyLO
    #3: http://ouo.io/oq7X3H
    #4: https://ouo.io/EsLaYY
    #5: https://ouo.io/MBZ8eU
    #6: https://ouo.io/9P8MYW
    #7: https://ouo.io/oLFSjB
    #8: https://ouo.io/ZXiX4F
    #9: https://ouo.io/fjARj7Z
    #10: https://ouo.io/u2ekz0m
    #11: https://ouo.io/u8Pvmn
    #12: https://ouo.io/XbOuxBQ
    Anual: https://ouo.io/lSORPN

    BDMV  Ai Tenchi Muyo!

    New_Vicious
    Por New_Vicious
    En esta historia, el mundo está en caos por culpa de Washu. Para poder arreglar el problema, Tenchi Masaki deberá infiltrarse y hacerse pasar por profesor de un instituto femenino. Por desgracia para él, los problemas siempre aparecen en su camino, y tendrá que lidiar con las travesuras de sus nuevas estudiantes. Obra conmemorativa del 20 aniversario de la serie. Nombre: 愛・天地無用! Año: 2014 Episodios: 50 Peso: 45gb Formato: BDMV Duración: 5 min x epi Pantalla: 16:9 Audios: Japones e Ingles Subtítulos: Ingles Menú: Si Extras: Si Genero: Aventura, Fantasia, Harem Contenido Oculto
    Reacciona para ver el contenido oculto.   www.cyber-team.ws  

    BDMV  Armed Girl's Machiavellism [2/2][EXCLUSIVO]

    New_Vicious
    Por New_Vicious
    Fudō Nomura es un estudiante que fue exiliado de su vieja escuela por una pelea violenta. Fudō desea vivir una vida libre, pero a la nueva escuela a la cual fue transferido es la Academia Privada de Simbiosis Aichi, un lugar donde las chicas disciplinan a los chicos con armas para corregirlos. Un grupo de cinco vigilantes llamado "Cinco Espadas Supremas" lideradas por Rin Onigawara, apunta con su espada a Nomura para conceder a las reglas o salir de la escuela. En este punto, Nomura desafía a las Cinco Espadas Supremas por su propio derecho y probar su verdadera moralidad a pesar de la fuerza bruta. Nombre: Busō Shōjo Machiavellianism Año: 2017 Episodios: 12 Peso: 65gb Formato: BDMV Duración: 24 min x epi Pantalla: 16:9 Audios: Japones e Ingles Subtítulos: Ingles Menú: Si Extras: Si Genero: Acción, Harem, artes marciales, comedia, escolar, romance Contenido oculto para Rango Avanzado o Superior Para ver este contenido debes iniciar sesión
    y tener rango ó ó
      www.cyber-team.ws  

×