Jump to content
News Ticker
  • Nuevo Precio en la Suscripcion, agradecemos su apoyo
  • Se agrego publicidad a la web apoyanos dando un click al dia en ella
parrix

Varios Nación salvaje (2018)[Varias Calidades][Castellano][Thriller][VS]

Recommended Posts




nac.jpg


Ficha-Tecnica5.png



Título original: Assassination Nation 
Año: 2018 
Duración: 110 min.
País: Estados Unidos
Director: Sam Levinson
Guión: Sam Levinson
Musica: Ian Hultquist
Fotografía: Marcell Rév
Reparto: Bella Thorne, Bill Skarsgård, Suki Waterhouse, Susan Misner, Joel McHale, Anika Noni Rose, Maude Apatow, Cody Christian, Colman Domingo, J.D. Evermore, Odessa Young, Noah Galvin, Joe Chrest, Hari Nef, Kelvin Harrison Jr., Cullen Moss, Abra, Danny Ramirez, Lukas Gage, Jeff Pope, Jennifer Morrison
Productora: Foxtail Entertainment / Phantom Four / Bron Studios / Creative Wealth Media Finance. Distribuida por Universal Pictures / Neon [USA]
Género: Thriller | Comedia negra. Adolescencia. Internet / Informática. Cine independiente USA





Tamaño: 4.30 GIB
Formato: Matroska
Video: AVC
Resolucion: 1920 x 804
Format profile: High@L4.1
Format settings, ReFrames: 5 frames
Audio 1: AC3 5.1 448 Kbps Castellano 
Audio 2: AC3 5.1 448 Kbps Ingles
Subs: Español e Ingles + Forzados 



MediaInfo:





Format : Matroska
Format version : Version 4
File size : 4.30 GiB
Duration : 1 h 47 min
Overall bit rate : 5 706 kb/s
Movie name : Nacion Salvaje
Encoded date : UTC 2019-03-21 19:50:49
Writing application : mkvmerge v10.0.0 ('To Drown In You') 64bit
Writing library : libebml v1.3.4 + libmatroska v1.4.5

Video
ID : 1
Format : AVC
Format/Info : Advanced Video Codec
Format profile : High@L4.1
Format settings : CABAC / 5 Ref Frames
Format settings, CABAC : Yes
Format settings, ReFrames : 5 frames
Codec ID : V_MPEG4/ISO/AVC
Duration : 1 h 47 min
Bit rate : 4 808 kb/s
Width : 1 920 pixels
Height : 804 pixels
Display aspect ratio : 2.40:1
Frame rate mode : Constant
Frame rate : 23.976 (24000/1001) FPS
Color space : YUV
Chroma subsampling : 4:2:0
Bit depth : 8 bits
Scan type : Progressive
Bits/(Pixel*Frame) : 0.130
Stream size : 3.63 GiB (84%)
Writing library : x264 core 152 r2851 ba24899
Encoding settings : cabac=1 / ref=5 / deblock=1:-3:-3 / analyse=0x3:0x113 / me=umh / subme=11 / psy=1 / psy_rd=1.00:0.00 / mixed_ref=1 / me_range=48 / chroma_me=1 / trellis=2 / 8x8dct=1 / cqm=0 / deadzone=21,11 / fast_pskip=0 / chroma_qp_offset=-2 / threads=16 / lookahead_threads=2 / sliced_threads=0 / nr=0 / decimate=1 / interlaced=0 / bluray_compat=0 / constrained_intra=0 / bframes=10 / b_pyramid=2 / b_adapt=2 / b_bias=0 / direct=1 / weightb=1 / open_gop=0 / weightp=2 / keyint=240 / keyint_min=23 / scenecut=40 / intra_refresh=0 / rc_lookahead=45 / rc=crf / mbtree=1 / crf=22.4 / qcomp=0.70 / qpmin=0 / qpmax=69 / qpstep=4 / vbv_maxrate=62500 / vbv_bufsize=78125 / crf_max=0.0 / nal_hrd=none / filler=0 / ip_ratio=1.40 / aq=1:1.10
Language : Spanish
Default : Yes
Forced : No

Audio #1
ID : 2
Format : AC-3
Format/Info : Audio Coding 3
Commercial name : Dolby Digital
Codec ID : A_AC3
Duration : 1 h 47 min
Bit rate mode : Constant
Bit rate : 448 kb/s
Channel(s) : 6 channels
Channel layout : L R C LFE Ls Rs
Sampling rate : 48.0 kHz
Frame rate : 31.250 FPS (1536 SPF)
Bit depth : 16 bits
Compression mode : Lossy
Stream size : 346 MiB (8%)
Language : Spanish
Service kind : Complete Main
Default : Yes
Forced : No

Audio #2
ID : 3
Format : AC-3
Format/Info : Audio Coding 3
Commercial name : Dolby Digital
Codec ID : A_AC3
Duration : 1 h 47 min
Bit rate mode : Constant
Bit rate : 448 kb/s
Channel(s) : 6 channels
Channel layout : L R C LFE Ls Rs
Sampling rate : 48.0 kHz
Frame rate : 31.250 FPS (1536 SPF)
Bit depth : 16 bits
Compression mode : Lossy
Stream size : 346 MiB (8%)
Language : English
Service kind : Complete Main
Default : No
Forced : No

Text #1
ID : 4
Format : UTF-8
Codec ID : S_TEXT/UTF8
Codec ID/Info : UTF-8 Plain Text
Duration : 1 h 19 min
Bit rate : 4 b/s
Count of elements : 109
Stream size : 2.85 KiB (0%)
Language : Spanish
Default : Yes
Forced : No

Text #2
ID : 5
Format : UTF-8
Codec ID : S_TEXT/UTF8
Codec ID/Info : UTF-8 Plain Text
Duration : 1 h 38 min
Bit rate : 71 b/s
Count of elements : 1471
Stream size : 51.3 KiB (0%)
Language : Spanish
Default : No
Forced : No

Text #3
ID : 6
Format : UTF-8
Codec ID : S_TEXT/UTF8
Codec ID/Info : UTF-8 Plain Text
Duration : 1 h 46 min
Bit rate : 66 b/s
Count of elements : 1583
Stream size : 51.7 KiB (0%)
Language : English
Default : No
Forced : No

Menu
00:00:00.000 : en:Chapter 01
00:22:06.367 : en:Chapter 02
00:43:51.712 : en:Chapter 03
01:01:11.334 : en:Chapter 04
01:16:31.170 : en:Chapter 05
01:21:47.694 : en:Chapter 06
01:28:27.135 : en:Chapter 07
01:39:32.884 : en:Chapter 08


[/CODE]

[/SPOILER]

[b]

Descomprimir con winrar, 7zip o programa similar.

[/b]

[img=https://i.ibb.co/fFQfVHn/Descripcion5.png]

[b]

Salem ya no es el de los juicios por brujería. De hecho, el Salem de los smartphones es mucho peor. El hackeo y la publicación de buena parte de la información íntima de sus ciudadanos hará que la gente de Salem pierda los papeles, desencadenando una ola de violencia que termina arrastrando a cuatro chicas, acusadas de estar detrás de este hurto cibernético y perseguidas como si fuesen brujas de nuestros tiempos.

[/b]

[img=https://i.ibb.co/y627NSK/Capturas5.png]


[img=https://i.ibb.co/GVtdSD2/N4c1O8O.jpg]

[b] Descarga todo de un servidor FREE + 1 parte NO FREE [/b]

[b] Para descargar tener abierto JDownloader v2, Mipony o programa similar [/b]


[img=https://image.ibb.co/nCXOux/Mipony_Jdownloader.png]

[img=https://i.ibb.co/XpzdZbB/Download5.png]

[img=https://image.ibb.co/mrqbEx/Links_Intercambiables.png]

[img=https://i.ibb.co/yPVS9bw/Users-Cloud.png]
[img=https://i.ibb.co/cX9XLsj/UpLoaded.png]
[img=https://i.ibb.co/H24gwbm/KatFile.png]
[img=https://i.ibb.co/QbYzTwL/Rapid-Gator.png]


Hidden Content
To see this content you must log in
and have rank or or




[b] Visita mi perfil para ver todos mis aportes [/b]


[img=https://image.ibb.co/kTJDux/Agradecer_solo_cuesta_1_click_Agradece_y_ser_s_agradecido.gif]

[/CENTER]
 

Share this post


Link to post
Share on other sites
Gracias por Apoyarnos
Deshabilitando el AdBlock y haciendo Click




nac.jpg


Ficha-Tecnica5.png



Título original: Assassination Nation 
Año: 2018 
Duración: 110 min.
País: Estados Unidos
Director: Sam Levinson
Guión: Sam Levinson
Musica: Ian Hultquist
Fotografía: Marcell Rév
Reparto: Bella Thorne, Bill Skarsgård, Suki Waterhouse, Susan Misner, Joel McHale, Anika Noni Rose, Maude Apatow, Cody Christian, Colman Domingo, J.D. Evermore, Odessa Young, Noah Galvin, Joe Chrest, Hari Nef, Kelvin Harrison Jr., Cullen Moss, Abra, Danny Ramirez, Lukas Gage, Jeff Pope, Jennifer Morrison
Productora: Foxtail Entertainment / Phantom Four / Bron Studios / Creative Wealth Media Finance. Distribuida por Universal Pictures / Neon [USA]
Género: Thriller | Comedia negra. Adolescencia. Internet / Informática. Cine independiente USA





Tamaño: 2.60 GIB
Formato: Matroska
Video: AVC
Resolucion: 1280 x 536
Format profile: High@L4.1
Format settings, ReFrames: 5 frames
Audio 1: AC3 5.1 448 Kbps Castellano 
Audio 2: AC3 5.1 448 Kbps Ingles
Subs: Español e Ingles + Forzados 



MediaInfo:





Format : Matroska
Format version : Version 4
File size : 2.60 GiB
Duration : 1 h 47 min
Overall bit rate : 3 451 kb/s
Movie name : Nacion Salvaje
Encoded date : UTC 2019-03-21 19:51:39
Writing application : mkvmerge v10.0.0 ('To Drown In You') 64bit
Writing library : libebml v1.3.4 + libmatroska v1.4.5

Video
ID : 1
Format : AVC
Format/Info : Advanced Video Codec
Format profile : High@L4.1
Format settings : CABAC / 5 Ref Frames
Format settings, CABAC : Yes
Format settings, ReFrames : 5 frames
Codec ID : V_MPEG4/ISO/AVC
Duration : 1 h 47 min
Bit rate : 2 553 kb/s
Width : 1 280 pixels
Height : 536 pixels
Display aspect ratio : 2.40:1
Frame rate mode : Constant
Frame rate : 23.976 (24000/1001) FPS
Color space : YUV
Chroma subsampling : 4:2:0
Bit depth : 8 bits
Scan type : Progressive
Bits/(Pixel*Frame) : 0.155
Stream size : 1.93 GiB (74%)
Writing library : x264 core 152 r2851 ba24899
Encoding settings : cabac=1 / ref=5 / deblock=1:-3:-3 / analyse=0x3:0x113 / me=umh / subme=11 / psy=1 / psy_rd=1.00:0.00 / mixed_ref=1 / me_range=48 / chroma_me=1 / trellis=2 / 8x8dct=1 / cqm=0 / deadzone=21,11 / fast_pskip=0 / chroma_qp_offset=-2 / threads=16 / lookahead_threads=2 / sliced_threads=0 / nr=0 / decimate=1 / interlaced=0 / bluray_compat=0 / constrained_intra=0 / bframes=10 / b_pyramid=2 / b_adapt=2 / b_bias=0 / direct=1 / weightb=1 / open_gop=0 / weightp=2 / keyint=240 / keyint_min=23 / scenecut=40 / intra_refresh=0 / rc_lookahead=45 / rc=crf / mbtree=1 / crf=20.0 / qcomp=0.70 / qpmin=0 / qpmax=69 / qpstep=4 / vbv_maxrate=62500 / vbv_bufsize=78125 / crf_max=0.0 / nal_hrd=none / filler=0 / ip_ratio=1.40 / aq=1:1.10
Language : Spanish
Default : Yes
Forced : No

Audio #1
ID : 2
Format : AC-3
Format/Info : Audio Coding 3
Commercial name : Dolby Digital
Codec ID : A_AC3
Duration : 1 h 47 min
Bit rate mode : Constant
Bit rate : 448 kb/s
Channel(s) : 6 channels
Channel layout : L R C LFE Ls Rs
Sampling rate : 48.0 kHz
Frame rate : 31.250 FPS (1536 SPF)
Bit depth : 16 bits
Compression mode : Lossy
Stream size : 346 MiB (13%)
Language : Spanish
Service kind : Complete Main
Default : Yes
Forced : No

Audio #2
ID : 3
Format : AC-3
Format/Info : Audio Coding 3
Commercial name : Dolby Digital
Codec ID : A_AC3
Duration : 1 h 47 min
Bit rate mode : Constant
Bit rate : 448 kb/s
Channel(s) : 6 channels
Channel layout : L R C LFE Ls Rs
Sampling rate : 48.0 kHz
Frame rate : 31.250 FPS (1536 SPF)
Bit depth : 16 bits
Compression mode : Lossy
Stream size : 346 MiB (13%)
Language : English
Service kind : Complete Main
Default : No
Forced : No

Text #1
ID : 4
Format : UTF-8
Codec ID : S_TEXT/UTF8
Codec ID/Info : UTF-8 Plain Text
Duration : 1 h 19 min
Bit rate : 4 b/s
Count of elements : 109
Stream size : 2.85 KiB (0%)
Language : Spanish
Default : Yes
Forced : No

Text #2
ID : 5
Format : UTF-8
Codec ID : S_TEXT/UTF8
Codec ID/Info : UTF-8 Plain Text
Duration : 1 h 38 min
Bit rate : 71 b/s
Count of elements : 1471
Stream size : 51.3 KiB (0%)
Language : Spanish
Default : No
Forced : No

Text #3
ID : 6
Format : UTF-8
Codec ID : S_TEXT/UTF8
Codec ID/Info : UTF-8 Plain Text
Duration : 1 h 46 min
Bit rate : 66 b/s
Count of elements : 1583
Stream size : 51.7 KiB (0%)
Language : English
Default : No
Forced : No

Menu
00:00:00.000 : en:Chapter 01
00:22:06.367 : en:Chapter 02
00:43:51.712 : en:Chapter 03
01:01:11.334 : en:Chapter 04
01:16:31.170 : en:Chapter 05
01:21:47.694 : en:Chapter 06
01:28:27.135 : en:Chapter 07
01:39:32.884 : en:Chapter 08

[/CODE]

[/SPOILER]

[b]

Descomprimir con winrar, 7zip o programa similar.

[/b]

[img=https://i.ibb.co/fFQfVHn/Descripcion5.png]

[b]

Salem ya no es el de los juicios por brujería. De hecho, el Salem de los smartphones es mucho peor. El hackeo y la publicación de buena parte de la información íntima de sus ciudadanos hará que la gente de Salem pierda los papeles, desencadenando una ola de violencia que termina arrastrando a cuatro chicas, acusadas de estar detrás de este hurto cibernético y perseguidas como si fuesen brujas de nuestros tiempos.

[/b]

[img=https://i.ibb.co/y627NSK/Capturas5.png]


[img=https://i.ibb.co/BN18hSb/N4c72O.jpg]

[b] Descarga todo de un servidor FREE + 1 parte NO FREE [/b]

[b] Para descargar tener abierto JDownloader v2, Mipony o programa similar [/b]


[img=https://image.ibb.co/nCXOux/Mipony_Jdownloader.png]

[img=https://i.ibb.co/XpzdZbB/Download5.png]

[img=https://image.ibb.co/mrqbEx/Links_Intercambiables.png]

[img=https://i.ibb.co/yPVS9bw/Users-Cloud.png]
[img=https://i.ibb.co/cX9XLsj/UpLoaded.png]
[img=https://i.ibb.co/H24gwbm/KatFile.png]
[img=https://i.ibb.co/QbYzTwL/Rapid-Gator.png]


Hidden Content
To see this content you must log in
and have rank or or




[b] Visita mi perfil para ver todos mis aportes [/b]


[img=https://image.ibb.co/kTJDux/Agradecer_solo_cuesta_1_click_Agradece_y_ser_s_agradecido.gif]

[/CENTER]
 

Share this post


Link to post
Share on other sites




nac.jpg


Ficha-Tecnica5.png



Título original: Assassination Nation 
Año: 2018 
Duración: 110 min.
País: Estados Unidos
Director: Sam Levinson
Guión: Sam Levinson
Musica: Ian Hultquist
Fotografía: Marcell Rév
Reparto: Bella Thorne, Bill Skarsgård, Suki Waterhouse, Susan Misner, Joel McHale, Anika Noni Rose, Maude Apatow, Cody Christian, Colman Domingo, J.D. Evermore, Odessa Young, Noah Galvin, Joe Chrest, Hari Nef, Kelvin Harrison Jr., Cullen Moss, Abra, Danny Ramirez, Lukas Gage, Jeff Pope, Jennifer Morrison
Productora: Foxtail Entertainment / Phantom Four / Bron Studios / Creative Wealth Media Finance. Distribuida por Universal Pictures / Neon [USA]
Género: Thriller | Comedia negra. Adolescencia. Internet / Informática. Cine independiente USA





Calidad de Video: HDRip XviD 720x304
Calidad de Audio: Castellano AC3 5.1 @448kbps
Subtitulos Forzados Pegados al Video
Tamaño: 1.91 GB 

Descomprimir con winrar, 7zip o programa similar.



 


Hidden Content
To see this content you must log in
and have rank or or




[b] Visita mi perfil para ver todos mis aportes [/b]


[img=https://image.ibb.co/kTJDux/Agradecer_solo_cuesta_1_click_Agradece_y_ser_s_agradecido.gif]

[/CENTER]
 

Share this post


Link to post
Share on other sites




nac.jpg


Ficha-Tecnica5.png



Título original: Assassination Nation 
Año: 2018 
Duración: 110 min.
País: Estados Unidos
Director: Sam Levinson
Guión: Sam Levinson
Musica: Ian Hultquist
Fotografía: Marcell Rév
Reparto: Bella Thorne, Bill Skarsgård, Suki Waterhouse, Susan Misner, Joel McHale, Anika Noni Rose, Maude Apatow, Cody Christian, Colman Domingo, J.D. Evermore, Odessa Young, Noah Galvin, Joe Chrest, Hari Nef, Kelvin Harrison Jr., Cullen Moss, Abra, Danny Ramirez, Lukas Gage, Jeff Pope, Jennifer Morrison
Productora: Foxtail Entertainment / Phantom Four / Bron Studios / Creative Wealth Media Finance. Distribuida por Universal Pictures / Neon [USA]
Género: Thriller | Comedia negra. Adolescencia. Internet / Informática. Cine independiente USA





Calidad de Video: DVDRip XviD 720x304
Calidad de Audio: Castellano AC3 5.1 @448kbps
Subtitulos Forzados Pegados al Video
Tamaño: 1.17 GB 

Descomprimir con winrar, 7zip o programa similar.



 


Hidden Content
To see this content you must log in
and have rank or or




[b] Visita mi perfil para ver todos mis aportes [/b]


[img=https://image.ibb.co/kTJDux/Agradecer_solo_cuesta_1_click_Agradece_y_ser_s_agradecido.gif]

[/CENTER]
 

Share this post


Link to post
Share on other sites

Create an account or sign in to comment

You need to be a member in order to leave a comment

Create an account

Sign up for a new account in our community. It's easy!

Register a new account

Sign in

Already have an account? Sign in here.

Sign In Now

×
×
  • Create New...