Jump to content
News Ticker
  • Nuevo Precio en la Suscripcion, agradecemos su apoyo
  • Se agrego publicidad a la web apoyanos dando un click al dia en ella
Kizunaxx

Latino Ghost In The Shell: Stand Alone Complex (2006) [2/3] [E-AC3 5.1+ SRT] [Extraídos de Amazon Prime Video]

Recommended Posts

sin_portada.jpg

sinopsis.png

En un futuro no muy lejano, el mundo se encuentra totalmente computerizado. Seres humanos con interfaces y cerebros artificiales se funden con máquinas alcanzando un nuevo nivel de existencia entre el mundo físico y la red digital. Para combatir los crímenes relacionados con las nuevas tecnologías ha sido creada una fuerza de choque antiterrorista con individuos 'mejorados' capaces de perseguir toda clase de criminales tanto en el mundo real como en el virtual. La Teniente cyborg Motoko Kusanagi y sus compañeros de la Sección 9 deben resolver una delicada crisis de rehenes, detener un tanque de asalto de última generación fuera de control y determinar la causa de los misteriosos suicidios de una serie de robots obsoletos. Todo ello antes de afrontar el desafío sin precedentes del esquivo pirata informático conocido como el 'Hombre que ríe'.

 

especificaciones.png

Nombre: Ghost In The Shell: Stand Alone Complex

Año: 2005 - 2006

Episodios: 3

Peso: 750 MB Aprox.

Formato: E-AC3 5.1 640k

Nota: Actualmente solo se han estrenado 2 de las 3 películas dobladas.

 

Audio
Format : E-AC-3
Format/Info : Enhanced AC-3
Commercial name : Dolby Digital Plus
Duration : 2 h 39 min
Bit rate mode : Constant
Bit rate : 640 kb/s
Channel(s) : 6 channels
Channel layout : L R C LFE Ls Rs
Sampling rate : 48.0 kHz
Frame rate : 31.250 FPS (1536 SPF)
Compression mode : Lossy
Stream size : 732 MiB (100%)
Service kind : Complete Main

Audio
Format : E-AC-3
Format/Info : Enhanced AC-3
Commercial name : Dolby Digital Plus
Duration : 2 h 42 min
Bit rate mode : Constant
Bit rate : 640 kb/s
Channel(s) : 6 channels
Channel layout : L R C LFE Ls Rs
Sampling rate : 48.0 kHz
Frame rate : 31.250 FPS (1536 SPF)
Compression mode : Lossy
Stream size : 744 MiB (100%)
Service kind : Complete Main

enlaces.png

Hidden Content


    Give reaction to this post to see the hidden content.

  • Like 5
  • Thanks 1

Share this post


Link to post
Share on other sites
Gracias por Apoyarnos
Deshabilitando el AdBlock y haciendo Click

Create an account or sign in to comment

You need to be a member in order to leave a comment

Create an account

Sign up for a new account in our community. It's easy!

Register a new account

Sign in

Already have an account? Sign in here.

Sign In Now

×
×
  • Create New...