Jump to content

Cyborg 009 (2001) [08/52] [AC3 5.1] [DVD] [MEGA]


Kizunaxx

Recommended Posts

sin_portada.jpg

sinopsis.png

Narra las aventuras 9 personas secuestrados por la Organización Fantasma Negro y son convertidos en Cyborgs con habilidades sobrehumanas.

especificaciones.png

Nombre: Cyborg 009

Año: 2001

Episodios: 52

Peso: 69 - 75 MB aprox.

Formato: AC3 5.1 Bitrate: 448k
Fuente: DVD (Solo se lanzaron 2 volumenes con los 8 primeros episodios)

 

Format                      : AC-3
Format/Info                 : Audio Coding 3
Commercial name             : Dolby Digital
Duration                    : 23 min 2 s
Bit rate mode               : Constant
Bit rate                    : 448 kb/s
Channel(s)                  : 6 channels
Channel layout              : L R C LFE Ls Rs
Sampling rate               : 48.0 kHz
Frame rate                  : 31.250 FPS (1536 SPF)
Bit depth                   : 16 bits
Compression mode            : Lossy
Stream size                 : 73.8 MiB (100%)
Service kind                : Complete Main

 

enlaces.png

This is the hidden content, please

  • Like 20
  • Thanks 7
  • Sad 1
Link to comment
Share on other sites

En 28/1/2019 en 13:00, Kizunaxx dijo:

sin_portada.jpg

sinopsis.png

Narra las aventuras 9 personas secuestrados por la Organización Fantasma Negro y son convertidos en Cyborgs con habilidades sobrehumanas.

especificaciones.png

Nombre: Cyborg 009

Año: 2001

Episodios: 52

Peso: 69 - 75 MB aprox.

Formato: AC3 5.1 Bitrate: 448k
Fuente: DVD (Solo se lanzaron 2 volumenes con los 8 primeros episodios)

 

Format                      : AC-3
Format/Info                 : Audio Coding 3
Commercial name             : Dolby Digital
Duration                    : 23 min 2 s
Bit rate mode               : Constant
Bit rate                    : 448 kb/s
Channel(s)                  : 6 channels
Channel layout              : L R C LFE Ls Rs
Sampling rate               : 48.0 kHz
Frame rate                  : 31.250 FPS (1536 SPF)
Bit depth                   : 16 bits
Compression mode            : Lossy
Stream size                 : 73.8 MiB (100%)
Service kind                : Complete Main

 

enlaces.png

Contenido Oculto

 

Solo puedo escuchar audio

Link to comment
Share on other sites

Create an account or sign in to comment

You need to be a member in order to leave a comment

Create an account

Sign up for a new account in our community. It's easy!

Register a new account

Sign in

Already have an account? Sign in here.

Sign In Now
×
×
  • Create New...

Important Information

Terms of Use - Privacy Policy - Guidelines