Jump to content
News Ticker
  • News ticker sample
  • News ticker sample

Leaderboard


Popular Content

Showing content with the highest reputation since 06/09/2019 in all areas

  1. 8 points
    La historia se lleva a cabo en Akihabara y se trata de un grupo de amigos que ha convertido su horno de microondas en un dispositivo que puede enviar mensajes de texto al pasado. A medida que realizan diferentes experimentos, una organización llamada SERN, que también ha estado haciendo su propia investigación sobre viaje en el tiempo, les sigue la pista y ahora los personajes tienen que encontrar una manera de evitar ser capturados por ellos. Nombre: STEINS GATE Año: 2011 Episodios: 24 + 2 OVAS Peso: 237 GB Formato: BDMV Duración: 24 MIN/CAP Pantalla: 16:9 Audios: CASTELLANO-ALEMAN-INGLES-FRANCES-ITALIANO-JAPONES Subtítulos: ESPAÑOL-ALEMAN-INGLES-FRANCES-ITALIANO Menú: SI Extras: SI Genero: Ciencia ficción, suspenso, romance, psicológico [Hidden Content] www.cyber-team.ws
  2. 2 points
    En un futuro no muy lejano, el mundo se encuentra totalmente computerizado. Seres humanos con interfaces y cerebros artificiales se funden con máquinas alcanzando un nuevo nivel de existencia entre el mundo físico y la red digital. Para combatir los crímenes relacionados con las nuevas tecnologías ha sido creada una fuerza de choque antiterrorista con individuos 'mejorados' capaces de perseguir toda clase de criminales tanto en el mundo real como en el virtual. La Teniente cyborg Motoko Kusanagi y sus compañeros de la Sección 9 deben resolver una delicada crisis de rehenes, detener un tanque de asalto de última generación fuera de control y determinar la causa de los misteriosos suicidios de una serie de robots obsoletos. Todo ello antes de afrontar el desafío sin precedentes del esquivo pirata informático conocido como el 'Hombre que ríe'. Nombre: Ghost In The Shell: Stand Alone Complex Año: 2005 - 2006 Episodios: 3 Peso: 750 MB Aprox. Formato: E-AC3 5.1 640k Nota: Actualmente solo se han estrenado 2 de las 3 películas dobladas. Audio Format : E-AC-3 Format/Info : Enhanced AC-3 Commercial name : Dolby Digital Plus Duration : 2 h 39 min Bit rate mode : Constant Bit rate : 640 kb/s Channel(s) : 6 channels Channel layout : L R C LFE Ls Rs Sampling rate : 48.0 kHz Frame rate : 31.250 FPS (1536 SPF) Compression mode : Lossy Stream size : 732 MiB (100%) Service kind : Complete Main Audio Format : E-AC-3 Format/Info : Enhanced AC-3 Commercial name : Dolby Digital Plus Duration : 2 h 42 min Bit rate mode : Constant Bit rate : 640 kb/s Channel(s) : 6 channels Channel layout : L R C LFE Ls Rs Sampling rate : 48.0 kHz Frame rate : 31.250 FPS (1536 SPF) Compression mode : Lossy Stream size : 744 MiB (100%) Service kind : Complete Main [Hidden Content]
  3. 2 points
    La serie narra las aventuras de Ichigo Kurosaki, un adolescente que tiene la facultad de interactuar con los espíritus. Una noche, Ichigo se encuentra con una shinigami —personificación japonesa del Dios de la muerte— llamada Rukia Kuchiki, quien se sorprende que pueda verla. Sin embargo, su conversación es interrumpida por la aparición de un hollow, un espíritu maligno. Después de que Rukia fuera gravemente herida al tratar de proteger a Ichigo, esta intenta traspasarle parte de sus poderes a Ichigo para que pueda enfrentarse al hollow en igualdad de condiciones. No obstante, Ichigo sin darse cuenta los absorbe casi por completo y logra vencer con facilidad al espíritu. Al día siguiente, Rukia aparece en la clase de Ichigo como una humana de apariencia normal, y le informa que debido a que ha absorbido la mayoría de sus poderes no puede regresar a su mundo hasta que los recupere. Entretanto, Ichigo acoge a Rukia en su casa y toma su trabajo de shinigami, defendiendo a las almas buenas de los hollows y orientándolas a la Sociedad de Almas. Nombre: Bleach Año: 2004 Episodios: 366 Peso: 571gb Formato: BDMV Duración: 24 min Pantalla: 4:3 y 16:9 Audios: Japones, Ingles Subtítulos: Ingles Menú: Si Extras: Si Genero: Acción, Aventura, Drama, Comedia, Sobrenatural Aquí van las capturas www.cyber-team.ws
  4. 2 points
    [Hidden Content] engo varias Covers de bluray para subir y las ire subiendo de a poco... si necesitan alguna en especial me avisan a ver si la tengo o la puedo conseguir. saludos www.cyber-team.ws
  5. 2 points
    Hellsing es una organización gubernamental secreta de Inglaterra con un gran poder. La serie Hellsing cuenta la historia de un siniestro vampiro llamado Alucard (Drácula al revés) que fue capturado por el líder de esta organización. Un día Sir Integra se ve amenazada por su tío y pide ayuda a Alucard, quien se la concede y a partir de ese momento pasa a estar bajo sus órdenes. Luego Hellsing entrará en conflicto con otra organización que no aprueba la idea de que un vampiro pueda formar parte de una organización encargada de destruir a otros vampiros, a parte de esto, Alucard y la organización Hellsing deberán enfrentarse a otros enemigos que quieren destruirlos. Titulo: Hellsing Titulo en Español: La Melodia del Infierno Estudio: Gonzo Director: Umanosuke Iida, Yasunori Urata País: Japón Año: 2001 Duración: 24 min por Capitulo Género: Seinen, Acción, Aventura, Horror, Misterio, Vampiros Cantidad de Episodios: 13 Cantidad de DVD's: 04 Formato: DVD5 (ISO) Idioma: Japones / Español (latino) Subtitulos: Ingles / Español Neutro Extras: Si Norma: NTSC Imagen: FullScreen (720x480 píxeles) Menú: Sí/Original Tamaño del Archivo: 4,35 Gb aprox. [Hidden Content] www.cyber-team.ws
  6. 1 point
    Saint Seiya Película 3 - La Leyenda de los Santos Escarlatas Febo Abel, dios del Sol y hermano de Atenea, retorna a la Tierra y resucita a los santos de oro muertos en la batalla de las doce casas, a fin de llevarse a su hermana y extinguir a la humanidad, considerando que ha llegado a un estado decadente. No obstante, los santos de bronce, quienes aparentemente son abandonados por Saori, evitarán que Abel cumpla su propósito, por lo que deberán enfrentarse a los santos de oro y a los tres misteriosos santos de la Corona. Saint Seiya película 4 - El Gerrero de Armagedón Despertado por los espíritus de Eris, Febo Abel y Poseidón, y derrotando a los Santos de Oro, Lucifer regresa a la Tierra, acompañado de sus cuatro ángeles infernales, con el objetivo de vengarse de Atenea, destruir a la humanidad y proclamarse soberano absoluto del universo. Para evitarlo, Saori Kido, decide sacrificar su vida en el Pandemonium, residencia de Lucifer, mientras que los Santos de Bronce lucharán para salvarla. Nombre: Saint Seiya Película 3 - La Leyenda de los Santos Escarlatas, Saint Seiya película 4 - El Gerrero de Armagedón Año: 1988 - 1989 Episodios: 2 peliculas Peso: 22gb Formato: NTSC Duración: 70m - 45m Pantalla: 16:9 Audios: Latino - Japones Subtítulos: Español Menú: si Extras: si Genero: Acción, aventura, fantasía. [Hidden Content] jpo178
  7. 1 point
    Un chico llamado Tōru Kokonoe decide, después de perder a alguien valioso en un incidente aterrador, que quiere ser más fuerte y se inscribe en una escuela especial donde las personas manifiestan sus almas como armas llamadas Blaze. Las personas con esta inusual habilidad son denominados "Exceed" y este fenómeno se da en 1 de cada 1000 personas. Tōru es capaz de producir su propio Blaze, pero por alguna razón se manifiesta como un escudo en lugar de un arma. Nombre: Absolute Duo Año: 2015 Episodios: 12 Peso: 68gb Formato: BDMV Duración: 24 min Pantalla: 16:9 Audios: Japones, Ingles Subtítulos: Ingles Menú: Si Extras: Si Genero: Acción, Ecchi, Harem, Fantasía, Romance [Hidden Content] www.cyber-team.ws
  8. 1 point
    Qué tal amigos.Como lo dije aquí está el Box3 de DBS , Disfrútenlo. Cuando Champa, el Dios de la Destrucción del Sexto Universo, descubre los deliciosos manjares de la Tierra propone a Beerus un trato: jugarse el planeta en un torneo de artes marciales entre los mejores luchadores de ambos universos. Por un lado, los representantes del Séptimo Universo: Goku, Vegeta, Piccolo, Buu y el misterioso Monaka, del que Beerus asegura que es más poderoso que Goku. Por el otro, los candidatos del Sexto Universo: el gigantesco y escurridizo Botamo, el robótico Magetta, el equivalente de Freeza conocido como Frost, el joven e inexperto Saiyan Cappa y el más poderoso de todos ellos, el asesino infalible Hit. ¡¿Qué sorpresas y emociones nos tendrá reservado este gran torneo entre universos?! Formato : Serie Sistema : Blu-ray Disc Versión original: Japonés Título original: DRAGON BALL SUPER Director:Kimitoshi Chioka Autor:Akira Toriyama (Jump Comics de Shueisha) País de producción: Japón Derechos de autor: ©Bird Studio/Shueisha, Toei Animation Film ©2015 Toei Animation Co.,Ltd Audio (idioma ): Japonés, Castellano Subtítulos: Castellano Audio: Audio Castellano 2.0 DTS HD Audio Japonés 2.0 DTS HD Tipo de producto :No Género: Acción País de producción CalificaciónNo recomendado a menores de 12 años _ Aquí van las capturas [Hidden Content] www.cyber-team.ws
  9. 1 point
    Bienvenido al post de la música Pokémon. En este post encontrarás TODOS los álbumes lanzados en España y en EEUU de la franquicia en calidad Lossless FLAC/ALAC . Una vez completado todos los posts haremos nuestro propio álbum con todas las canciones de todas las temporadas y películas en FLAC. ¡Disfrutadlo! ¿Eres Capaz De Aprenderte el Poke Rap? Año: 1997. Discográfica: Edel/Koch Records. Calidad: Lossless. Formato:ALAC. Peso: 352MB. Idioma: Español Castellano. INFORMACIÓN: Este disco fue lanzado en 1999 en varios países debido al éxito obtenido con la primera temporada por todo el mundo. Edel Music junto con Nintendo y GameFreak lanzaron un recopilatorio en CD con las canciones de la serie. En España las canciones fueron regrabadas por cantantes diferentes a los de la serie en la mayoría de las canciones. El álbum contiene de extra el Poke Rap en Video. Pokémon - Total Año: 2001. Discográfica: Koch Records. Calidad: Lossless. Formato: ALAC. Peso: 352MB. Idioma: Español Castellano. INFORMACIÓN: Tras el primer disco lanzado internacionalmente, en 2001 Nintendo, Gamefreak y Koch Records, lanzaron el disco Pokémon Total. Un nuevo CD con las nuevas canciones de la temporada Johto. Nuevamente, para el disco regrabaron todas las canciones con los mismos cantantes y cantantes diferentes a los que cantaban en la serie. Este álbum es el gran desconocido de la franquicia, pues aún teniendo éxito , no logró cosechar las ventas que tuvieron con el primero. Pokémon - 2.b.a. Master Año: 1997. Discográfica: Edel/Koch Records. Calidad: Lossless. Formato: FLAC. Peso: 352MB. Idioma: Inglés. INFORMACIÓN: Este disco fue lanzado en 1999 en varios países debido al éxito obtenido con la primera temporada por todo el mundo. Edel Music junto con Nintendo y GameFreak lanzaron un recopilatorio en CD con las canciones de la serie. Pokémon - 2.b.a. Para Ser Un Maestro Año: 1997. Discográfica: Edel/Koch Records. Calidad: Lossless. Formato: FLAC. Peso: 465MB. Idioma: Español Latino. INFORMACIÓN: Este disco fue lanzado en 1999 en varios países debido al éxito obtenido con la primera temporada por todo el mundo. Edel Music junto con Nintendo y GameFreak lanzaron un recopilatorio en CD con las canciones de la serie. Totally Pokémon Año: 2001. Discográfica: Koch Records. Calidad: Lossless. Formato: FLAC. Peso: 352MB. Idioma: Inglés. INFORMACIÓN: Tras el primer disco lanzado internacionalmente, en 2001 Nintendo, Gamefreak y Koch Records, lanzaron el disco Pokémon Total. Un nuevo CD con las nuevas canciones de la temporada Johto. Este álbum es el gran desconocido de la franquicia, pues aún teniendo éxito , no logró cosechar las ventas que tuvieron con el primero. Pokémon The First Movie Año: 1999. Discográfica: Universal Music. Calidad: Lossless. Formato: FLAC. Peso: 455MB. Idioma: Inglés. INFORMACIÓN: Álbum lanzado con la primera película de Pokémon. Mew Vs. Mewtwo. Incluye su banda sonora. Pokémon The First Movie Año: 1999. Discográfica: Universal Music. Calidad: Lossless. Formato: FLAC. Peso: 277 MB. Idioma: Inglés. INFORMACIÓN: Álbum lanzado con la primera película de Pokémon. Mew Vs. Mewtwo. Incluye su banda sonora instrumental. Pokémon 2: The Power Of One Año: 2000. Discográfica: Universal Music. Calidad: Lossless. Formato: FLAC. Peso: 450 MB. Idioma: Inglés. INFORMACIÓN: Álbum lanzado con la segunda película de Pokémon. Pokémon 2: El poder De Uno. Pokémon World Año: 2000. Discográfica: Koch Records. Calidad: Lossless. Formato: FLAC. Peso: 156 MB. Idioma: Inglés. INFORMACIÓN: Álbum lanzado con las canciones de la segunda temporada de Pokémon - Las Islas Naranjas. Pokémon 3: The Soundtrack Año: 2001. Discográfica: Universal Music. Calidad: Lossless. Formato: FLAC. Peso: 336 MB. Idioma: Inglés. INFORMACIÓN: Álbum lanzado con la tercera película de Pokémon. Pokémon 3: El hechizo De Los Unown. Pokémon - Christmas Bash Año: 2001. Discográfica: Koch Records. Calidad: Lossless. Formato: FLAC. Peso: 284 MB. Idioma: Inglés. INFORMACIÓN: Álbum lanzado con canciones navideñas con temática Pokémon cantada por sus actores de doblaje y cantantes en EEUU. Pokémon - Pokémon X Ten Years Of Pokémon Año: 2007. Discográfica: Koch Records. Calidad: Lossless. Formato: FLAC. Peso: 277 MB. Idioma: Inglés. INFORMACIÓN: Álbum lanzado con canciones navideñas con temática Pokémon cantada por sus actores de doblaje y cantantes en EEUU. [Hidden Content]
  10. 1 point
    .Todas las personas en Manhattan han ganado los poderes de Spider-Man, sin embargo no todos saben que un gran poder conlleva una gran responsabilidad. Podrá Spider-Man mantener la paz o reinará el caos? Tamaño:12-37mb Formato:Cbr Editorial:Marvel 1-27: https://ouo.io/51R33
  11. 1 point
    Bueno, ya llevo algún tiempo en la comunidad, pero digamos que quería esperar la oportunidad de presentarme después de haber hecho alguna contribución importante aparte de noticias, así que después de haber subido mis primeros aportes para descargar, los cuales ya pueden encontrar en la página, es el momento de presentar, por decirlo de alguna manera, mis intenciones aquí. Quizás algunos ya los sepan, pero para los que no, mi interés en el anime, manga o cualquier medio que tenga que ver con esta cultura, ha sido influenciado por mi afición al aprendizaje de los idiomas. Entonces quizás te preguntes. ¿Qué idiomas puede uno aprender viendo anime? Pues desgraciadamente no hay estudio o estadística oficial al respecto de cuantos o en que idiomas los animes son doblados. Pero, a través de mi experiencia personal, puedo decir que los animes, mangas, juegos y otros contenidos anime-manga japones se encuentra doblado, mayoritariamente, en los siguientes idiomas: 1- Ingles 2- alemán 3- Frances 4- chino (mandarín y cantones) 5- italiano 6- español (Castellano y latino) 7- portugués 8- ruso Obviamente el japones queda fuera de concurso por obvias razones. Analizando un poco vemos al inglés, francés y alemán claramente en el primer lugar, estos tres se demarcan claramente del chino (a pesar de que en china también tienen su variante del anime llamado “DONGHUA”), asi como del italiano, español y portugués, los cuales quedan relegados junto al ruso; aunque este último ha empezado últimamente a resurgir. Afortunadamente, estos idiomas son altamente valorados y digamos que son los mas ampliamente hablados alrededor del mundo. Por esto me dije, ¿qué mejor que aprender estos idiomas viendo el anime que tanto me gusta no? Hay mucho mas para hablar sobre esto, y quizás lo profundice en otra ocasión, pero por ahora solo quiero que sepan que mis aportes estarán centrados en material en estos idiomas. Obviamente en mi colección no tengo demasiados animes en español, ya que es muy lengua materna, pero tratare de aportar la mayor cantidad de animes en nuestro idioma como pueda, o por lo menos les ofreceré los subtítulos en español, y lógicamente el idioma original japones, para aquellos que solo quieran ver el anime sin complicaciones. También, si a la comunidad le interesa, me gustaría compartir algo del método que me ha permitido aprender estos idiomas basando mi aprendizaje en todo tipo de medio audiovisual que tenga que ver con la cultura anime-manga japones. Pero no se preocupen que no me quiero poner pesado con esto y me enfocare principalmente en subir animes para descargar y en las noticias. Y bueno eso seria todo por ahora, espero no haberme alargado demasiado, si tienen algún comentario, pregunta o sugerencia sobre mis aportes o lo que sea, no duden en hacerla y pues nada espero aportar buenos animes y otras cosillas, así que no me resta mas que decir gracias y que alisten sus discos duros …😉
  12. 1 point
    Gracias por aportar tanto bro 😀.
  13. 1 point
    Hellsing relata los esfuerzos de los misteriosos y secretos Caballeros Protestantes Reales, "Hellsing" y sus combates con vampiros, ghouls y otros enemigos sobrenaturales que amenazan al reino de Inglaterra. Nombre: Herushingu (Hellsing) Año: 2001 Episodios: 13 Peso: 21,6 GB Formato: VOB Duración: 325 min Pantalla: 4:3 Audios: Español / japones Subtítulos: Español Menú: Si Extras: Si Genero: Animación www.cyber-team.ws
  14. 1 point
    En un planeta llamado "Life Core", que existe paralelamente con el mundo de los humanos normales, las hembras son conocidas como Jūden-chan (充電ちゃん juuden chan?, lit. niñas cargador), las cuales patrullan el mundo humano en busca de personas que se sienten deprimidas y con mala suerte. Su trabajo consiste en recargar a estas personas con la ayuda de la electricidad, con el fin de mejorar sus estados mentales; normalmente sin ser vistas por ojos humanos. Una de estas Jūden-chan, Plug Cryostat, accidentalmente conoce a un joven que es capaz de verla, cuando estaba a punto de recargar a su padre (a su hermana en el anime). Esta serie gira en torno a las travesuras entre los personajes principales. Nombre: Fight Ippatsu! Jūden-chan!! Año: 2009 Episodios: 12 Peso: 79gb Formato: BDMV Duración: 24 min Pantalla: 16:9 Audios: Japones, Ingles Subtítulos: Ingles Menú: Si Extras: Si Genero: Comedia, Ciencia ficción, Ecchi [Hidden Content] www.cyber-team.ws
  15. 1 point
    La serie consiste de una secuencia de historias cortas describiendo las desventuras de cuatro aventureras femeninas en un mundo de fantasía repleto de peligrosos monstruos y magas hostiles. Infundidas con una generosamente abierta, pero a la vez efectiva armadura tipo bikini, las cuatro mujeres deben aprender a superar los peligros de su mundo para conocer las expensas de sus vidas y al mismo tiempo tratar de estar cómodas con la idea de exponer mucho de su físico. Nombre: ビキニ・ウォリアーズ Año: 2015 Episodios: 12 Peso: 15gb Formato: BDMV Duración: 5min Pantalla: 16:9 Audios: Japones, Ingles Subtítulos: Ingles Menú: Si Extras: Si Genero: Comedia, Ecchi, Fantasía, Parodia [Hidden Content] www.cyber-team.ws
  16. 1 point
    La trama se desarrolla en Ciudad Z, Japón. Saitama es un superhéroe que, debido a varias circunstancias, puede derrotar de un puñetazo a los monstruos y villanos que asolan el lugar. Debido a esto, el chico se aburre, pues no encuentra un rival a la altura. Es por ello que emprende una singular aventura junto a la Asociación de Héroes. Además de buscar a un contrincante digno, Saitama tiene que conseguir que el resto le valore, pues su aspecto hace que la gente le discrimine y le considere un héroe de tres al cuarto. Año: 2015 Duración: 22 min. País: Japón Director: Shingo Natsume Guión: Tomohiro Suzuki (Manga: ONE, Yuusuke Murata) Música: Makoto Miyazaki Productora: MADHOUSE Género: Serie de TV. Animación. Acción. Comedia | Superhéroes. Manga One Punch Man [6/6] BD25 One Punch Man Season 1 [BD25] Formato: edicion japonesa BD25 Cantidad de discos: 6 Menú: si Java: No Escenas: si Idioma: Japones, Español Subtitulo: Español Contraseña: no tiene Aquí van las capturas [Hidden Content] www.cyber-team.ws
  17. 1 point
    La Ley del Ciclo guía a las Puella Magi salvándolas de la desesperación, pero, ¿siempre fue así? Madoka Kaname, la que una vez fuera una chica normal y corriente que vivía los días más felices de su vida, sacrificó su propia existencia para romper la cadena que ataba a todas las Puella Magi a un destino cruel. Incapaz de olvidarla, Homura Akemi sigue luchando sola en el mundo que Madoka legó a la humanidad con el único propósito de volver a ver la sonrisa de su amiga una vez más. “En este mundo incorregible, que repite una y otra vez sus tragedias y su odio, he soñado que volvía a encontrar esa sonrisa familiar una vez más”. Pero ella es la única persona del mundo que recuerda a Madoka y poco a poco la soledad va consumiendo su corazón… Nombre: Puella Magi Madoka Magica - The Movie Rebellion Año: 2013 Episodios: Pelicula Peso: 45gb Formato: BDMV Duración: 115 min Pantalla: 16:9 Audios: Japones, Castellano Subtítulos: Español Menú: Si Extras: Si Genero: Acción, Drama, Fantasía, Horror, Suspenso, Thriller psicológico, Tragedia Aquí van las capturas www.cyber-team.ws
  18. 1 point
    ¿Cuándo empecé a escribir mensajes que nunca envío? ¿A qué velocidad debo vivir para volverte a ver? Después de graduarse en escuela primaria, Takaki Tono y Akari Shinohara fueron por caminos separados a pesar de lo que sentían uno por el otro. Lo unico que pasó entre ellos fue el tiempo. Un día, en medio de una tormenta de nieve, Takaki finalmente fue a ver a Akari… La película consta de 3 historias que narran varias etapas desde distintos puntos de vista: “Extracto de Flor de Cerezo”, “Cosmonauta” y “5 centímetros por segundo”. Nombre: Byōsoku Go Senchimētoru Año: 2007 Episodios: Pelicula Peso: 25gb Formato: BDMV Duración: 63 min Pantalla: 16:9 Audios: Japones, Castellano Subtítulos: Español Menú: Si Extras: Si Genero: Drama, Romance [Hidden Content] www.cyber-team.ws
  19. 1 point
    En un principio el argumento se centra en Son Gokū, Bulma, y la búsqueda de las legendarias Esferas del Dragón, un total de siete esferas que al ser reunidas dan lugar a la aparición del dragón sagrado que puede conceder cualquier deseo. Los jóvenes encontrarán otros personajes que se les unirán con el paso de la historia; Son Gokū se adentrará en la búsqueda de las Esferas del Dragón y desafiará a todo tipo de villanos para convertirse en el hombre más fuerte del mundo. En varios momentos la serie se volcará al Tenkaichi Budōkai, un gran torneo mundial de artes marciales en el que los mejores luchadores de todo el mundo se darán cita, batiéndose en duelo a fin de demostrar quién es el luchador más fuerte sobre la Tierra. Más adelante, a partir de la pelea contra Piccolo Daimaō, el argumento dará un cambio radical: las Esferas del Dragón quedan en un segundo plano y el argumento se fijará en la protección de la Tierra y del universo entero, a través de continuas batallas en contra de villanos cada vez más poderosos e investigando el origen de Gokū y las Esferas del Dragón. Nombre: Dragon Ball Nombre original: Dragon Ball Año: 1986 Episodios: 153 Peso total: 37xDVD9 Formato: VIDEO_TS (.vob) Duración: 24 min Pantalla: 4:3 Resolución: 720x480 Audios: Castellano, Japonés, Catalán, Gallego, Euskera Subtítulos: Castellano Menú: Sí Extras: Sí Género: Acción, Aventura, Shounen [Hidden Content] www.cyber-team.ws
  20. 1 point
    Han pasado 4 años desde el caso Makishima, y Akane Tsunemori es ahora la líder de su equipo de enforcers y una de las pocas personas que conocen qué es el sistema Sybil en realidad. Una vez más la unidad deberá enfrentarse a un criminal que pondrá el sistema en peligro. Nombre: Psycho Pass 2 Año: 2014 Episodios: 11 Peso: 44,8 GB Formato: BDMV Duración: 25 min por capitulo. Pantalla: 16:9 Audios: Castellano, Ingles, Japones... Subtítulos: Castellano, Ingles, Japones... Menú: si Extras: si Genero: Ciencia ficción | Cyberpunk. Policíaco. www.cyber-team.ws
  21. 1 point
    Drifters tiene de protagonista a Shimazu Toyohisa, un samurái real del siglo XVI que luchó y murió en la batalla de Sekigahara. Sin embargo, en su momento de agonía, Shimazu es transportado a un mundo mágico lleno de famosos guerreros de toda la historia de la humanidad. Nombre: Drifters Año: 2016 Episodios: 12 Peso: 47,8 GB Formato: Bluray Duración: 22 min por capitulo. Pantalla: 16:9 Audios: Castellano, Japones, etc... Subtítulos: Castellano, Japones, etc... Menú: si Extras: si Genero: Acción, Fantasia. www.cyber-team.ws
  22. 1 point
    Hola, como dije hace rato que iba a aplicar unos cambios pero que aun no los he aplicado creo que es hora de hacerlo, y aquí una lista de los primos cambios que se vienen a la web. Primero ya he creado el grupo de lite uploader mas de rato voy a mandar los pm a las personas que van a tener el rango. También ya tenia rato que sabia pero había ciertos usuarios que podían ver el contenido de la sección de donadores sin tener el rango y al no poder hallar una solución que se pudiera aplicar he decidido bloquear el acceso por completo a los temas, ahora solo los usuarios con el rango adecuado podrán ver los temas y de paso cambiar todos los enlaces por nuevos (aun en proceso). Y de paso se va a cambiar el nombre a esa sección y a su grupo correspondiente de donadores a suscriptores y también notificar que se ha instalado la tienda que tiene el foro (es distinta a la Member Shop que hay actualmente) en la cual se puede encontrar lo siguiente, Cuentas Premium (Aun no disponibles), Suscripciones y Donaciones, todo eso dentro de la misma app, aun estoy terminando de configurar algunas partes de la misma pero parece que todo funciona como debería. Debido a lo anterior estoy por mover toda la info que había en la app de donaciones que se usaba actualmente a la nueva app, separando el rango de las donaciones quedando de la siguiente forma 1 mes por 20 Euros, 3 meses por 40 Euros y 6 meses por 60 Euros. Estos precios van a pasar a ser fijos solo se cambiaran en ciertas fechas aplicándoles un descuento y si se preguntan que porque aumento respecto a como se manejaba antes y creo que haciendo cuentas así rápido en la sección de suscriptores hay un aprox de 10tb en descargas y aumentando, también todas están en google y próximamente en one drive y dropbox bussines (me he comprado un par de cuentas) así que creo que es algo mas equilibrado lo que se pide a lo que se obtiene. Y como siempre un agradecimiento a @saintseiya1984 y @srmusico por ayudarme a comprar mucho del material de selecta en España y también a @Lina por sus propios aportes realizados a la sección. Y continuando con los cambios ando buscando un par de redactores de noticias que quieran agregar noticias sobre anime, mangas, juegos y relacionado a esto y viendo que estamos muy centrados en las descargas he pensado en crear unas categorías adicionales pero estas serian para la discusión sobre lo anterior dicho así que ando buscando ideas de que foros crear para que haya mas actividad y no solo descargas y así le sea mas fácil a las personas ir subiendo de rango sin tantos problemas ya que habrá otras cosas con las cuales lograr los objetivos. Y también me pueden decir de que hosting les gustaría que se pusieran cuentas estaba pensando en 1fichier y mega que son los mas usados eso si tal vez no valla ser al mejor precio que se puedan conseguir pero tengan en cuenta que serian pocas las que pondría ya que serian cuentas compradas entre nosotros y compartidas con mas miembros de la comunidad. De momento eso seria todo lo que quiero comunicarles así que nos vemos en la próxima, y cualquier duda pregunten que para eso estamos.
  23. 1 point
    La historia se centra en 7 niños de Japón, que son transportados al Mundo digital después de encontrar unos Digivice y ser arrastrados por una "gran ola", llegando así a la Isla File (lit. «Isla archivo»). Allí encuentran a sus compañeros Digimon, y con su ayuda, aprenderán a sobrevivir pese a las adversidades de estar en un mundo desconocido. Conforme avanza la serie, descubren que son los Niños elegidos. A mitad de la serie se integra el octavo niño elegido con su Digimon. Los 8 niños tendrán que luchar contra las fuerzas de la oscuridad que quieren apoderarse del Mundo digital y el Mundo real. Nombre: Digimon Adventure Año: 2000 Director: Hiroyuki Kakudo Estudio: Toei Animation Género: Acción, Aventura, Comedia Formato: BDRip Relación de aspecto: 4:3 Duracion por Episodio: 24 Min. Aprox. Idioma: Japonés Peso Total: ?¿ Ripper: Cyber-Team [Hidden Content] www.cyber-team.ws
  24. 1 point
    Goku y sus amigos luchan para salvar al planeta del Príncipe Vegeta y sus súbditos, que son los últimos miembros de una raza alienígena, los Saiyan. Nombre: Dragon Ball Kai Año: 2009 Episodios: 167 Peso: 7 GB Formato: Bluray 1920x1440 y 1920x1080 Duración: 20 minutos Pantalla: 4:3 y 16:9 Audios: Catalan, Japones, Ingles, Latino Subtítulos: Ingles, Ingles forzado y latino forzado Menú: No Extras: Si Genero: Acción, Aventuras, Fantasia Periocidad publicación: 1 semana aproximadamente [Hidden Content] NOTA: Hay algunos capítulos que las contraseñas tienen un espacio delate y otro detrás por culpa del copi paste de contraseñas que lo copia con espacio, hasta que me he dado cuenta he subido asó los capítulos. www.cyber-team.ws/Talki
  25. 1 point
    ¡Bienvenido al post definitivo de la película Pokémon 2: El Poder de Uno! Os presentamos el post más completo realizado hasta la fecha y con la mejor calidad de imagen HD 1080p y audio posible. Incluye 9 Idiomas, ¡Todos ellos en alta calidad AC3 5.1 Para que podáis disfrutar de la mejor experiencia Pokémon en vuestro idioma! También tenéis disponible el corto de Pikachu El Recate ¿A qué esperas? ¡Pon las palomitas en el microondas y a disfrutar! Nombre: Pokémon 2 - El Poder de Uno. Año: 1999/2000/ Remaster 2015. Peso: 11,89 GB. Calidad: BD RIP. Formato: MKV. Resolución: 1920 x 1080p. Duración: 1h y 20 min. Pantalla: 16:9. Idiomas: Español Castellano 5.1., Inglés 5.1, Japonés 5.1, Español Latino 5.1,Alemán 5.1,Portugués 5.1,Portugués de Brazil 5.1,Griego 5.1, Hebreo 5.1. Genero: Shonen INFORMACIÓN TÉCNICA: NOTAS DE LOS EDITORES: Hemos realizado todo el proceso de edición con una exigencia y calidad 100% profesional. Sincronizado al milímetro los audios para que coincidan. El video ha sido codificado en base al blu ray internacional Autraliano, el cual curiosamente tiene aún mejor calidad de imagen que el Blu Ray Japonés. Ha sido codificado al milímetro para no perder nada de calidad de imagen y tener un peso óptimo para el valor de la película. Los audios han sido extraídos, editados y sincronizados de los dvds originales de cada país. Si solo deseáis conservar el audio español, podéis quitarle el resto de audios con MKVToolNix. Ash y sus amigos están ahora viajando por las Islas Naranja; ¡pero incluso esta aparentemente tranquila conjunto de islas,desperdigada por las aguas muy al sur de Kanto, tiene sus propios misterios, aventuras y Pokémon Legendarios! Lawrence III seguramente lo sabe, por eso ahora estará viajando a las diferentes islas para capturar a los tres pájaros Legendarios: Moltres, Articuno y Zapdos. Pero incluso con toda su fortaleza, estos tres son solo una piedra en el camino hacia una recompensa mucho más grande: ¡Lugia, el guardián del mar! Cuando nuestros protagonistas están cansados , una serie de acontecimientos suceden y sus Pokémon comienzan una nueva aventura inesperada. ¡Descúbrelo en la fantástica segunda historia de Pikachu! Tenéis el cortometraje disponible en HD 1080p en Español 5.1, Español Latino 5.1, Inglés 5.1, Japonés 5.1, Griego 5.1,Alemán 5.1 y Hebreo 5.1. [Hidden Content] Fabrebatalla18 Srmusico DragsterPS CyberTeam New_Vicious Sergioct6 Hectorevil
  26. 1 point
    Aqui va la sinopsis de la serie Nombre: デジモンアドベンチャー 02 Año: 2000 Episodios: 50 Peso: 1,5 GB apróx. Formato: mkv Duración: 23 min apróx. Pantalla: 4:3 Audios: Japones, Castellano Subtítulos: No Genero: Shonen Aquí van las capturas [Hidden Content]
  27. 1 point
    La serie narra las aventuras de Ichigo Kurosaki, un adolescente que tiene la facultad de interactuar con los espíritus. Una noche, Ichigo se encuentra con una shinigami —personificación japonesa del Dios de la muerte— llamada Rukia Kuchiki, quien se sorprende que pueda verla. Sin embargo, su conversación es interrumpida por la aparición de un hollow, un espíritu maligno. Después de que Rukia fuera gravemente herida al tratar de proteger a Ichigo, esta intenta traspasarle parte de sus poderes a Ichigo para que pueda enfrentarse al hollow en igualdad de condiciones. No obstante, Ichigo sin darse cuenta los absorbe casi por completo y logra vencer con facilidad al espíritu. Al día siguiente, Rukia aparece en la clase de Ichigo como una humana de apariencia normal, y le informa que debido a que ha absorbido la mayoría de sus poderes no puede regresar a su mundo hasta que los recupere. Entretanto, Ichigo acoge a Rukia en su casa y toma su trabajo de shinigami, defendiendo a las almas buenas de los hollows y orientándolas a la Sociedad de Almas. Nombre: Bleach Año: 2004 Director: Noriyuki Abe Estudio: Pierrot Género: Acción, Aventura, Comedia dramática, Sobrenatural Formato: DVDFULL Duracion por Episodio: 24 Min. Aprox. Idioma: Japonés Peso Total: 103gb Aquí van las capturas [Hidden Content] www.cyber-team.ws
  28. 1 point
    Issei Hyōdō es un estudiante de segundo año de la Academia Kuō que tiene una gran perversión y una conducta muy lasciva. Lleva una vida tranquila hasta que es llamado para una cita con una chica llamada Yūma Amano. Cuando comienza a oscurecer la chica lo lleva hasta un lugar apartado donde le muestra su verdadera forma. Ella es un ángel caído y planea asesinarlo. Ya que nadie puede salvarlo Issei muere. Cuando despierta, descubre que ha reencarnado en un demonio, y desde ese mismo día trabaja como sirviente de Rias Gremory, una chica demonio de alto nivel que resulta ser la más hermosa y popular del instituto. Nombre: ハイスクールD×D Año: S1 - 2012 | S2 - 2013 | S3 - 2015 Episodios: 12 por Temp Peso: 212gb Formato: BDMV Duración: 24 min Pantalla: 16:9 Audios: Japones, Ingles Subtítulos: Ingles Menú: Si Extras: Si Genero: Acción, Comedia romántica, Ecchi, Fantasía, Harem, Sobrenatural, Bishōjo High School DxD High School DxD New [Hidden Content] www.cyber-team.ws
  29. 1 point
    La historia comienza en el Japón antiguo, donde existían los demonios y los humanos; en este mundo los demonios eran enemigos de los humanos, aunque siempre se encontraban excepciones como es el caso de los padres de Inuyasha. Inuyasha es un hanyou (mitad humano y mitad demonio), Inuyasha busca la legendaria gema Shikon no dama para poder convertirse en un demonio completo y asi dejar de ser despreciado por los hombres y por los demonios, durante su busqueda del "Shikon no dama" se encuentra con Kikiou, la poderosa y bella sacerdotisa de un pueblo, la cual tenia bajo su custodia la gema de "Shikon no dama"; Inuyasha intentara quitarle la gema muchas veces sin ningún éxito, hasta que "Kikiou" lo llama y le expresa que ella siente un especial afecto por el y le sugiere que se convierta en humano en vez de demonio y viva con ella, Inuyasha queda sorprendido ante tal oferta y no sabe que decir, a esto Kikiou le ofrece traer la gema para que se convierta en humano, luego de esto un extraño personaje interviene y causa un mal entendido entre ambos, el cual termina en que Kikiou queda herida mortalmente e Inuyasha queda sellado en un sueño eterno por Kikiou, antes de morir Kikiou pide ser incinerada junto con la "Shikon no dama" para que esta última no caiga en malas manos... Pasaron los años hasta la actualidad, en el mismo lugar donde se ubicaba ese antiguo pueblo se contruye un templo que esta resguardado por un viejo anciano que tiene una nieta llamada Kagome, Kagome es una estudiante de preparatoria bastante común y corriente, un día antes de su cumpleaños, su abuelo le regala algunas cosas extrañas, entre ellas una mano seca de kappa (un legendario monstruo o duende de agua); a Kagome realmente no le parece interesante este regalo y se lo ofrece a su gato ¿?... luego Kagome ve un pequeño llavero con una esfera que tenía la inscripción de "Shikon no dama" mientras que lo veia su abuelo le cuenta la leyenda respecto a la gema (historia que a Kagome la pareció aburrida)... Nombre: InuYasha Año: 2010 Distribuidor: Sunrise Director: Masashi Ikeda Género: Acción, Aventura, romance, comedia, fantasía, Humor negro Formato: DVD ISO Relación de aspecto: 4:3 Duracion por Episodio: 24 Min. Aprox. Idioma: Japonés Peso del DVD: 3,6GB Aprox. [Hidden Content] www.cyber-team.ws
  30. 1 point
    CLANNAD (クラナド Kuranado?) es una novela visual japonesa desarrollada por la compañía Key, fabricantes de otros juegos como Kanon y Air. Salió al público el 28 de abril de 2004 en edición limitada para PC, luego de postergarse su lanzamiento en varias ocasiones, y meses más tarde, el 8 de agosto, apareció en edición regular. Asimismo hubo versiones para la PlayStation 2, PlayStation 3, PlayStation Portable y Xbox 360. Clannad fue uno de los juegos bishōjo más vendidos el año de su lanzamiento y se le considera también como uno de los más populares en Japón. A diferencia de los anteriores trabajos de la compañía, Kanon y Air, que originalmente fueron lanzadas como novelas visuales de contenido erótico y censuradas para el mercado más joven, Clannad es su primer juego apto para todo público, sin contener situaciones subidas de tono o cualquier indicio de fanservice sexual, excepto tal vez en el anime. Sin embargo, el 25 de noviembre de 2005 se lanzó un spin-off adulto de Clannad, titulado Tomoyo After: It's a Wonderful Life (智代アフター ~It's a Wonderful Life~ Tomoyo Afutāー ~It's a Wonderful Life~?) y enfocado en Tomoyo Sakagami, una de las cinco protagonistas de Clannad. Ha tenido también numerosas adaptaciones: una serie de cuatro mangas en orden cronológico, en las revistas Comic Rush, Comi Digi +, Dengeki G's Magazine y Dragon Age Pure; una película realizada por Toei Animation (quienes también adaptaron Kanon al anime en 2002 y la película de Air), lanzada el 15 de septiembre de 2007; dos temporadas de anime (incluidas dos OVA), producidas por Kyoto Animation (nueva versión de Kanon y la serie de Air) de veintitrés y veinticuatro capítulos; dos CD drama y una novela ligera. Argumento Clannad narra la historia de Okazaki Tomoya, un melancólico estudiante de tercer año de secundaria. Al morir su madre cuando él era joven, queda en custodia de Naoyuki, su padre, quien al verse afectado por esta trágica pérdida acaba hundido en el juego y el alcohol. Las relaciones padre-hijo se complican hasta el punto en que Tomoya decide frecuentar su casa lo menos posible, desarrollando una personalidad cerrada e indiferente, llena de conflictos interiores y sin deseos de superación. Su vida da un giro cuando una mañana de camino a la escuela conoce a Furukawa Nagisa, una enigmática muchacha con cualidades algo fuera de lo corriente y que cambiará su manera de ver el mundo. Desde ese momento comienza una amistad entre ambos. A lo largo de la historia aparecen nuevos compañeros, nuevas situaciones, nuevos desafíos, momentos tristes y alegres, y juntos viven experiencias extrañas e insólitas que les hace entender la fortaleza y fragilidad de la vida. Temática. La primera parte de la historia consiste en la vida estudiantil de los personajes, que ocurre en una de las mejores escuelas de la ciudad. Los lugares frecuentados usualmente fuera de ésta son la panadería de los padres de Nagisa o el dormitorio en el que vive Youhei Sunohara, el amigo de Tomoya. A medida que avanza la trama se pueden apreciar atisbos de un mundo alterno que se muestra como un espejismo ante el espectador. Este es un mundo en donde nada nace y nada muere, y donde el tiempo no existe. La segunda parte de la historia tiene lugar en la misma ciudad pero con los personajes ya mayores. A lo largo de Clannad se pueden apreciar numerosos temas. Uno de los principales se relaciona con el tener una familia, pues como nos dice el escritor Jun Maeda, el título de la serie es un término que deriva del irlandés familia o clan.1 Consiste en el juego de palabras de Clann As Dohbar creado por la banda Clannad (grupo musical irlandés), y que quiere decir la familia de Dore.2 De los seis protagonistas, son Tomoya, Nagisa y Kotomi los únicos que no tienen hermanos, por lo que sus padres se convierten en el factor principal de sus historias. De éstas, la historia de Nagisa se hizo para incorporar lo que Maeda describe como la “familia perfecta”, puesto que, a diferencia de otras, ella y sus padres viven tranquilos y felices. Los personajes de Tomoya y Nagisa fueron hechos en un estilo que ejemplifica el paso hacia la verdadera vida adulta al final de la serie. Las historias de Fuko y Kyou tienen a sus hermanas como elemento principal, mientras que la historia de Tomoyo involucra su familia entera. Nombre: Clannad Año: 2007 Episodios: 22 + 1 OVA + 1 Especial Peso: Tamaño total Formato: BDMV Duración: 25 Minutos Aprox por episodio Pantalla: 16:9 Audios: Japones 2.0 Subtítulos: Latino Menú: Si Extras: Si Genero: Drama, Romance, Tragedia, Harem, Comedia, Fantasía [Hidden Content]
  31. 1 point
    Segunda Guerra Mundial (1939-1945). Seita y Setsuko son hijos de un oficial de la marina japonesa que viven en Kobe. Un día, durante un bombardeo, no consiguen llegar a tiempo al búnker donde su madre los espera. Cuando después buscan a su madre, la encuentran malherida en la escuela, que ha sido convertida en un hospital de urgencia. Nombre: Hotaru No Haka Año: 1988 Peso: 284 MB Formato: AC3 5.1 Format : AC-3 Format/Info : Audio Coding 3 Commercial name : Dolby Digital Duration : 1 h 28 min Bit rate mode : Constant Bit rate : 448 kb/s Channel(s) : 6 channels Channel layout : L R C LFE Ls Rs Sampling rate : 48.0 kHz Frame rate : 31.250 FPS (1536 SPF) Bit depth : 16 bits Compression mode : Lossy Stream size : 284 MiB (100%) Service kind : Complete Main [Hidden Content]
  32. 1 point
    Es el décimo cumpleaños de Ash, y está listo para hacer lo que muchos chicos de 10 años en la región Kanto se proponen: ¡convertirse en un Entrenador Pokémon! Las cosas no salieron exactamente según lo planeado cuando terminó con un Pikachu en lugar de un primer Pokémon estándar, y ganar Medallas Gim fue mucho más duro de lo que pensó. Afortunadamente tiene a los antiguos Líderes Gim Brock y Misty a su lado, junto con un gran grupo de nuevos amigos Pokémon, incluidos Bulbasaur, Squirtle y Charmander. INFORMACIÓN: Nombre: Pokémon Temporada 1 - Hazte Con Todos!. Año: 1997. Episodios: 83 (3 Censurados fuera de Japón). Peso: 600 MB / 300 MB. Calidad: WEB DL. Formato: MKV. Resolución: 1440 x 1080p. Duración: 23 min aprox. Pantalla: 4:3. Audios: Castellano,Inglés, Español Latino,Francés,Alemán,Italiano,Portugués,Portugués (Brasileño),Sueco,Danés,Finés,Holandés,Noruego y Árabe.. Genero: Shonen Agradecimientos a todo el equipo del uploader DragsterPS por hacer posible esta recopilación masiva de idiomas. Creditazo para todos ellos. [Hidden Content]
  33. 1 point
    Serie de TV (1997-1998). 25 episodios. Durante más de 100 años, los magníficos ejércitos de Chuder y los de la región central han luchado en sangrientas batallas. Tan sólo la impenetrable fortaleza Doldery mantiene al Imperio de Chuder a salvo de todas las guerras que les rodean. La banda de los Halcones han tomado posiciones en la gran ofensiva. En esta batalla, las tropas de la región central podrán llegar hasta las puertas de la legendaria fortaleza de Chuder y desafiar al ejército invencible del General Boscongn TÍTULO ORIGINAL: Kenpû denki baruseruku (Berserk) (TV Series) OTROS TITULOS: Berserk EPISODIOS: 25 PAÍS: Japón DIRECTOR: Kentaro Miura (Creator), Naohito Takahashi GUIÓN: Kentaro Miura MÚSICA: Susumu Hirasawa FOTOGRAFÍA: Animation REPARTO: Animation PRODUCTORA: OLM-Animation Studio GÉNERO: Serie de TV. Animación. Aventuras. Drama, Manga. Animación para adultos. Fantasía medieval Aquí van las capturas [Hidden Content] www.cyber-team.ws
  34. 1 point
    Colección con todas las películas de Dragon Ball, Dragon Ball Z y Dragon Ball GT Incluye el Audio Latino, consta de 2 volúmenes separados en 4 dvd cada uno sumando un total de 17 películas. Manteniendo su menú original y calidad excelente. Nombre: Dragon Box The Movies Cantidad DVDs: 8 Idiomas: Latino 2.0, Japonés 2.0, Subtitulo: Latino, Sistema: NTSC Relación de aspecto: 16:9 Contenido Vol 1 Vol. 1 DVD 1 --------------------------------------------------------------------------------------------------------------------------------- TÍTULO ORIGINAL: Doragon bôru: Shenron no densetsu (Dragon Ball: The Legend of Shenron ) OTROS TITULOS: Dragon Ball: La Leyenda del Dragón Shenron AÑO DE ESTRENO: 1986 AÑO DE PRODUCCION: 1986 DURACIÓN: 00:56:00 EPISODIOS: Movie Sinopsis Primera película animada de Dragon Ball. Viene a ser un resumen de los primeros capítulos de la serie, pese a incorporar algunos cambios. Cuenta la leyenda que hay siete esferas de dragón desparramadas por toda la Tierra. Aquél que logre juntarlas podrá invocar al dragón Shen-Ron que es capaz de cumplir cualquier deseo. Acompaña a Goku, Bulma, Oolong, Yamcha y Puar en esta fantástica aventura mientras enfrentan al ambicioso Rey Gourmeth quien tiene oprimido a su pueblo. Esta película es la base que utilizaron en 1989 para hacer "Dragon Ball: Comienza la magia". --------------------------------------------------------------------------------------------------------------------------------- TÍTULO ORIGINAL: Doragon bôru: Majinjô no nemuri hime (Dragon Ball: Sleeping Princess in Devil's Castle) OTROS TITULOS: Dragon Ball: La Bella Durmiente Del Castillo Embrujado AÑO DE ESTRENO: 1987 AÑO DE PRODUCCION: 1987 DURACIÓN: 00:50:00 EPISODIOS: Movie SINOPSIS: La Bella Durmiente en el Castillo del Mal es la 2ª película basada en la serie de manga y anime Dragon Ball estrenada el 18 de julio de 1987. Es una continuación directa de La Leyenda del Dragón Shenron. Para poder ser aceptados como alumnos del Duende Tortuga, Goku y Krilin deben cumplir una mision: salvar a la bella durmiente que descansa en el castillo del mal. --------------------------------------------------------------------------------------------------------------------------------- TÍTULO ORIGINAL: Doragon bôru: Makafushigi dai bôken (Dragon Ball: Mystical Adventure) OTROS TITULOS: Una Aventura Mística AÑO DE ESTRENO: 1988 AÑO DE PRODUCCION: 1988 DURACIÓN: 00:50:00 EPISODIOS: Movie SINOPSIS: Tercera película basada en la serie de manga y anime Dragon Ball. Es una continuación directa de La Bella Durmiente en el Castillo del Mal. El Maestro Roshi decide llevar a Krilin y Goku al Torneo de las Artes Marciales. Pero en el reino de Milaf están buscando las esferas del dragón y para ello han construído un radar... Vol. 1 DVD 2 --------------------------------------------------------------------------------------------------------------------------------- TÍTULO ORIGINAL: Doragon bôru Z 1: Ora no Gohan wo kaese (Dragon Ball Z 1: Return My Gohan! - AKA Dragon Ball Z: Dead Zone) OTROS TITULOS: Dragon Ball Z: Garlic Junior inmortal / Devuelvanme A Mi Gohan! AÑO DE ESTRENO: 1989 AÑO DE PRODUCCION: 1989 DURACIÓN: 00:48:00 EPISODIOS: Movie SINOPSIS: Cuarta película basada en el manga/anime de Akira Toriyama y primera de la etapa Dragon Ball Z. Cuenta como un ser llamado Garlic Jr., trata de reemplazar por la fuerza a Kami Sama en su puesto de Dios en la Tierra. Y para ello, secuestrará a Gohan ya que es él quien tiene la esfera de cuatro estrellas en su sombrero... --------------------------------------------------------------------------------------------------------------------------------- TÍTULO ORIGINAL: Doragon bôru Z 2: Kono yo de ichiban tsuyoi yatsu (Dragon Ball Z: The Movie - The World's Strongest) OTROS TITULOS: Dragon Ball Z: El Más Fuerte Del mundo AÑO DE ESTRENO: 1989 AÑO DE PRODUCCION: 1989 DURACIÓN: 00:45:00 EPISODIOS: Movie SINOPSIS: Quinta película basada en el anime/manga de Akira Toriyama y segunda de la etapa Dragon Ball Z; El doctor Willow, tras sufrir un accidente en su laboratorio, tratará de transplantar su cerebro con el cuerpo del hombre más fuerte del mundo: Goku. --------------------------------------------------------------------------------------------------------------------------------- TÍTULO ORIGINAL: Doragon bôru Z 3: Chikyû marugoto chô kessen (Tree of Might The Super Battle in the World) OTROS TITULOS: Dragon Ball Z: La Super Batalla AÑO DE ESTRENO: 1990 AÑO DE PRODUCCION: 1990 DURACIÓN: 01:00:00 EPISODIOS: Movie SINOPSIS: Sexta película basada en el manga/anime de Akira Toriyama y tercera de la etapa Dragon Ball Z. Una banda de desertores del ejército de Freezer capitaneada por el misterioso Tarles llega a la tierra con una semilla terrible. Una vez plantada, surge un árbol monstruoso que amenaza con absorber toda vida en el planeta. El dichoso Tarles resulta ser un saiyano que por una broma del destino se parece a Son Goku como si fuera su hermano gemelo. Vol. 1 DVD 3 --------------------------------------------------------------------------------------------------------------------------------- TÍTULO ORIGINAL: Doragon bôru Z 4: Super Saiyajin da Son Gokû (The Super Saiyan Is Son Goku) (Lord Slug) OTROS TITULOS: Dragon Ball Z: El Super Guerrero Son Goku AÑO DE ESTRENO: 1991 AÑO DE PRODUCCION: 1991 DURACIÓN: 00:46:00 EPISODIOS: Movie SINOPSIS: Séptima película basada en el manga/anime de Akira Toriyama y cuarta de la etapa Dragon Ball Z. El malvado hechicero Slug, habitante del planeta Namek, desterrado hace mucho tiempo a causa de sus fechorías, llega a la Tierra en una nave espacial. Su fin es reunir las dragon ball para recuperar la juventud y convertir el planeta en un sitio adecuado para el ejército de demonios que le acompaña. --------------------------------------------------------------------------------------------------------------------------------- TÍTULO ORIGINAL: Doragon bôru Z 5: Cooler's Revenge (Battle of the Strongest vs. the Strongest) OTROS TITULOS: Dragon Ball Z: Los Rivales Más Poderosos AÑO DE ESTRENO: 1991 AÑO DE PRODUCCION: 1991 DURACIÓN: 01:00:00 EPISODIOS: Movie SINOPSIS: Octava película basada en el manga/anime de Akira Toriyama y quinta de la etapa Dragon Ball Z. Cuando Goku y sus amigos están en un día de campo, aparecen los soldados de Cooler a luchar contra ellos... Vol. 1 DVD 4 --------------------------------------------------------------------------------------------------------------------------------- TÍTULO ORIGINAL: Doragon bôru Z 6: Gekitotsu! Hyakuoku powâ no senshitachi (Attack!! The Hundred-Million-Power Warriors. Return of Cooler) OTROS TITULOS: Dragon Ball Z: Guerreros Más Poderosos / El Regreso The Cooler AÑO DE ESTRENO: 1992 AÑO DE PRODUCCION: 1992 DURACIÓN: 00:50:00 EPISODIOS: Movie SINOPSIS: Novena película basada en el manga/anime de Akira Toriyama y sexta de la etapa Dragon Ball Z. El nuevo kamisama, Dende, se entera que su planeta natal, Namek, está en peligro. Pide ayuda a Goku y sus amigos para que salven su planeta así que los guerreros Z deciden ir a ayudar. Al llegar Goku y sus amigos (Piccolo, Gohan, Krilin, Oolong, Kame Sen'nin y Yajirobe) se dan cuenta que una especie de estrella esta atacando al planeta. Los namekianos estaban siendo apresados por unos robots y deciden ayudarlos pero se dan cuenta que los robots son muy fuertes y son capturados para que su energía sea absorbida por la gran estrella. Detrás de todo esto esta Coola, el hermano mayor de Freeza, al que pensaban que Goku, había vencido. Esta vez es de metal y su cerebro forma parte del ordenador Big Gete Star, con el que puede clonarse en miles de Metal Coolas. --------------------------------------------------------------------------------------------------------------------------------- TÍTULO ORIGINAL: Doragon bôru Z 7: Kyokugen batoru!! San dai sûpâ saiyajin (Super Android 13 - Battle Limit!! Three Great Super Saiyans) OTROS TITULOS: Dragon Ball Z: Los 3 Grandes Super Saiyajin AÑO DE ESTRENO: 1992 AÑO DE PRODUCCION: 1992 DURACIÓN: 01:00:00 EPISODIOS: Movie SINOPSIS: Décima película basada en el manga/anime de Akira Toriyama y séptima de la etapa Dragon Ball Z. Cuando el Dr. Gero murió asesinado por #17, el ordenador central no quedo desactivado, sino siguió trabajando. Este trabajo consistió en crear tres nuevos androides: #13, #14 y #15; con el único motivo de destruir a Son Goku... Aquí van las capturas [Hidden Content] www.cyber-team.ws
  35. 1 point
    Bueno chicos hoy les voy a dejar este otro tutorial sobre como agregar subs y audios a un bluray, aquí no les voy a explicar como convertir los subs a formato .sup o el audio a ac3 para que sea compatible con el bd eso ya lo deben haber hecho con antelación, lo primero es que hay que bajar estos programas que son los que vamos a ocupar tsMuxerGUI, BDedit y por supuesto el bluray a editar [Hidden Content] ya con los programas y el disco vamos a respaldar solo estas 2 carpetas que a mi parecer es lo único que necesitamos respaldar y eso son las carpetas CLIPINF y PLAYLIST que porque esas 2 carpetas pues porque son las que contienen toda la info necesaria para reproducir los m2ts sin problemas bueno ahora lo que necesitamos es abrir el programa tsMuxerGUI y nos aparecerá esta ventana después le damos al botón add y agregamos el archivo m2ts original al que le queremos agregar sub y audios (en este caso solo voy a agregar sub pero el proceso es el mismo para ambos casos) después de agregados los subs y audios y de haberlos editado y ordenado como se ve a continuación (por lo general dejo siempre al final lo agregado en este orden primero subs y después audios) ahora abrimos el programa llamado BDedit y veremos la siguiente ventana en esa ventana en la pestaña que dice BDMV le damos clic al botón que tiene forma de carpeta y buscamos la carpeta del bd original la seleccionamos y le damos en aceptar y automáticamente nos carga toda la información del bd ahora vamos a la pestaña CLIPINF y en donde pone xxxxx.clpi buscamos el numero correspondiente al que estemos editando en este caso es el 00015 y buscamos esta parte y apuntamos el tiempo que pone en present. st. que es 0:00:11.651 y de una vez comprobamos el mismo valor de todos los demás capítulos una vez hecho esto podemos cerrar por ahora el BDedit y volvemos al tsMuxerGUI y vamos a la pestaña Blu-ray y buscamos en Options la parte donde dice Star mux time y ponemos el valor que sacamos de BDedit que es 0:00:11.651 (esto es importante porque si no lo hacemos luego cuando estemos reproduciendo el bd en algún programa y avancemos entre los capítulos estos no van a funcionar porque los tiempos no coinciden) y después vamos a donde dice output y seleccionamos la opción que dice Blu-ray folder y seleccionamos donde guardaremos el archivo final y le damos a Start muxing y esperamos a que termine y listo si vamos a la ruta anterior veremos que nos ha hecho un duplicado exacto de un bd pero en la carpeta STREAM solo habrá un archivo de vídeo si lo abrimos veremos que se reproduce sin problemas y con los sub y audios agregados ahora vamos a renombrar 2 archivos el primero en la carpeta CLIPINF re nombramos el archivo 00000.clpi a 00015.clpi y el segundo en la carpeta STREAM lo cambiamos de 00000 a 00015 y los movemos a las mismas rutas pero ahora en el bd original y remplazamos los archivos (si no quieren remplazar el archivo solo renombre el original) ahora abrimos el programa BDedit de nuevo y nos mostrara automáticamente el ultimo bd cargado con este programa se pueden hacer muchas cosas desde como se dice en este tutorial agregar subs y audios, hasta editar los menús como por ejemplo traducir el menú de un idioma a otro pero por ahora solo nos centraremos en agregar subs y audios solamente para eso nos vamos a la pestaña que dice PLAYLIST y en la parte que dice xxxxx.mpls buscamos la lista que cargue el m2ts que acabamos de editar en este caso es el 15 (no siempre coincide en ambos el numero así que revisen bien antes de hacer algo mal) para averiguar que playlist debemos modificar en la parte que dice PlayList verán varias columnas una de ellas llamada file, empezamos a movernos entre los mpls hasta que veamos en file 00015 que es el que estamos usando en este tutorial el cual aparece en 2 listas en la 00008 y en la 00010, pero porque aparece en 2 listas eso es fácil de responder y es por que la lista 00008 es la que carga cuando le damos al botón de reproducir todo y es la lista que reproduce todos los episodios de forma seguida es decir uno después de otro hasta que se acaban todos los episodios del disco la lista 00010 es la que se reproduce cuando le decimos al bd que reproduzca x capitulo así que debemos editar las 2 listas de la siguiente manera, en la lista 00008 primero seleccionamos la fila que pone el archivo 00015, una vez seleccionada a su derecha vemos una sección llamada SIN en ella las que nos interesa son la columna llamada Au y PG que son Audios y Subtitulos respectivamente seleccionamos el numero 2 que aparece abajo de PG ya que vamos a agregar subitulos (pero el procedimiento es el mismo para los audios salvo una diferencia que mas adelante voy a explicar) como se puede ver solo pone 2 lineas la 1200 y la 1201 ambas en ingles pero mas a la izquierda vemos 2 botones uno con un signo de + y otro con - son para agregar o quitar en este caso le damos al botón de + ya que vamos a agregar un nuevo subtitulo y al hacerlo nos agrega una nueva linea pero idéntica a la primera así que la vamos a editar le cambiamos el numero 1200 por 1202 que es el siguiente numero de la lista y en attrib seleccionamos spa que es el identificador de español quedando así y le damos al botón de Save que esta mero abajo de todo y listo ahora a editar la lista 00010 de la misma manera como la hicimos con la 00008 y al acabar le daremos de nuevo en Save ahora si lo que vamos a agregar es un audio seleccionamos en SIN el 2 en que esta abajo de Au y lo veremos de la siguiente forma le damos clic al signo de + y nos va a agregar un nuevo audio y se vera así y de nuevo lo editamos, cambiamos el 1100 por 1102 luego en donde pone DD lo dejamos como esta si el audio agregado es AC3 que es el formato que recomiendo ya que es el mas usado, si usan otro formato lo seleccionan de la lista disponible (no voy a explicar todas las opciones para saber que es cada formato simplemente selecciónelo y después ponga el puntero del ratón arriba de la opción y aparecerá una descripción de que formato es) luego en la siguiente opción seleccionamos Stereo o si es audio 5.1 o superior pues se deja como Multi-ch (también hay otras opciones pero igual si desean saber que es cada cosa como dije antes) luego en la siguiente opción ponemos 48 kHz si es distinto seleccionar el correcto y por ultimo seleccionamos el idioma en este caso spa y ya para acabar solo le damos a Save y listo con eso hemos agregado tanto el audio como los subtitulos en español y ahora toca repetir el proceso por cada uno de los capítulos que contiene cada disco y ya solo queda probar el resultado en un programa que lea bluray como PowerDVD o TotalMedia Theatre. Y eso seria todo lo necesario para agregarle a un bd tanto sub como audio, hay otras formas de hacerlo pero esta es la que yo uso y espero les sirva a todos.
  36. 1 point
    Está ambientada en un futuro desolador, con el planeta Tierra convertido en un basurero lleno de residuos y metal, habitado por pesados Cyborgs, cazarrecompensas despiadados y otros inadaptados. Flotando sobre toda esta polución se encuentra la ciudad del cielo de Zalem, un refugio sin gérmenes, para la élite social del planeta. Entre los desperdicios, un brillante científico especialista en cybernética, el Doctor Ido, encuentra los restos de una centenaria Cyborg, a la que reconstruye poniéndole como nombre Alita. Para Alita el pasado no existe ya que carece de recuerdos y el presente es brutalmente peligroso, por lo que decide usar sus extraordinarios poderes para sobrevivir, viéndose sumergida en el mundo de los cazarrecompensas. Una historia cyberpunk de extraña y terrible belleza donde la vida es dura, con poco valor… y sólo los fuertes sobreviven. Titulo Original: Gunnm (Battle Angel Alita) Titulo Otros: Alita , Ángel de combate Formato: DVD Norma: NTSC Audio: Ingles / Latino / Ruso Subtítulo: Ingles / Latino / Ruso Menú: Si Extras: Si [Hidden Content] www.cyber-team.ws
  37. 1 point
    Colección con todas las películas de Dragon Ball, Dragon Ball Z y Dragon Ball GT Incluye el Audio Latino, consta de 2 volúmenes separados en 4 dvd cada uno sumando un total de 17 películas. Manteniendo su menú original y calidad excelente. Caratula y discos [Hidden Content] Tengo varias Covers de bluray para subir y las ire subiendo de a poco... si necesitan alguna en especial me avisan a ver si la tengo o la puedo conseguir. saludos
  38. 1 point
    Hace mucho tiempo, hubo una era en la que la voz de la humanidad podía despertar la verdad de todas las cosas. Pero pronto, un nuevo invento habría de cambiar la historia para siempre. Los "Caracteres" se convirtieron en un gran método de comunicación, y se extendieron con velocidad. En el espacio entre la Voz y la Verdad apareció el "Logos World". Han pasado miles de años desde entonces...El avance de la civilización ha provocado un crecimiento del Logos World, y ahora, los Caracteres están desbocados. El joven Kaibuki Akira, de Asagaya, tiene un encuentro con estos Caracteres descontrolados, y antes de que el caos se extienda por la realidad, utiliza la Voz del Destino. El nacimiento de "Aquarion", lo único con la capacidad de calmar el Logos World, supone el comienzo este nuevo mito. Nombre: アクエリオンロゴス Año: 2015 Episodios: 25 Peso: 135gb Formato: BDMV Duración: 24min Pantalla: 16:9 Audios: Japones, Ingles Subtítulos: Ingles Menú: Si Extras: Si Genero: Comedia, Mecha, Ciencia Ficción, Acción, Fantasía, Romance [Hidden Content] www.cyber-team.ws
  39. 1 point
    Sinopsis En el año 2026, el Augma es lanzado al público como un sistema alternativo al AmuSphere, debido a su función de realidad aumentada en la que el jugador está consciente, a diferencia de la realidad virtual. El juego más notorio basado en los combates es Ordinal Scale, en donde las habilidades de los jugadores están clasificadas con números ordinales. Nombre: Sword Art Online La Película: Ordinal Scale (劇場版 ソードアート・オンライン -オーディナル・スケール- Gekijō-ban Sōdo Āto Onrain -Ōdinaru Sukēru) Año: 2017 Episodios:01 Peso: 47 GB Formato: BDMV Duración: 180 M Pantalla: 16:9 1920 1080 Audios: Japonés / Inglés Subtítulos: ENG Menú: SI Extras: NO Genero: Animación [Hidden Content] www.cyber-team.ws
  40. 1 point
    [Hidden Content] www.cyber-team.ws
  41. 1 point
    La historia tiene lugar en Haulin(el año del deslumbramiento) 3015. D'natia y Kōran, dos países que luchan por la supremacía, están causando la destrucción del mundo por la constante guerra. En medio de la contienda esta el país de la isla Nil Kamui, que ha perdido su independencia. El Dragón Rojo, el Dios guardián de Nil Kamui, se sale de control. ¿El país de la isla será capaz de recuperar su independencia?. Chaos Dragon está basado en el proyecto de ficción de rol Red Dragon, una historia qué estuvo creado por cinco escritores notables: Gen Urobuchi, Kinoko Nasu, Izuki Kogyoku, Ryōir Narita, y Simadoriru (miembro del círculo doujin patrón de rayas). Los resultados de sus sesiones de juego de rol de mesa de más de seis días creó el material para una serie de novelas ligeras de siete volúmenes. Nombre: ケイオスドラゴン Año: 2015 Episodios: 12 Peso: 67gb Formato: BDMV Duración: 24 min Pantalla: 16:9 Audios: Japones, Ingles Subtítulos: Ingles Menú: Si Extras: Si Genero: Acción, Fantasía, Sobrenatural. [Hidden Content] www.cyber-team.ws
  42. 1 point
    Sakura Kinomoto, una pequeña niña de diez años que accidentalmente libera un conjunto de cartas que se encontraban dentro de un libro, el cual había descubierto en la biblioteca de su padre. Tras esto, Kero —el guardián del libro— emerge y, al enterarse de que la mayoría de las cartas conocidas como las «cartas Clow» se habían esparcido por todas partes, le dice a Sakura que ahora es su responsabilidad convertirse en una «cardcaptor» e ir en busca de ellas para evitar que ocurra una «catástrofe» en el mundo. [Hidden Content] www.cyber-team.ws
  43. 1 point
    Serie de TV (1983-1986). 128 episodios. Serie anime basado en el popular manga homónimo creado por Yoichi Takahashi en 1981. La historia comienza cuando Tsubasa Ozora (Oliver), de 12 años de edad, se muda a Shizuoka. El joven Tsubasa tiene la ilusión de jugar con el equipo más famoso de esa ciudad: el Shutetsu, en el cual milita el mejor portero de la liga nacional: Genzo Wakabayashi (Benji). Sin embargo el protagonista tendrá que entrenar duro y jugar agotadores partidos (incluso lesionado) para alcanzar su sueño: ganar el campeonato nacional de fútbol. Nombre: Captain Tsubasa Año: 1983 Episodios: 128 Peso: 140gb Formato: DVDISO Duración: 24 min Pantalla: 4:3 Audios: Japones, Castellano Subtítulos: Español Menú: Si Extras: Si Genero: Deportes (Fútbol) Aquí van las capturas [Hidden Content] www.cyber-team.ws
  44. 1 point
    La historia se centra en Light Yagami, un estudiante de bachillerato. Un día, encuentra un cuaderno con poderes sobrenaturales llamado «Death Note», con el cual es capaz de matar personas si se escriben los nombres de estas en él, a la vez que si el portador visualiza mentalmente la cara de quien quiere asesinar.8 Light, percatándose del potencial del cuaderno, intenta eliminar a todos los criminales y crear un mundo donde no exista la maldad; sin embargo, un misterioso detective privado que se hace llamar L, famoso mundialmente por resolver grandes casos en el pasado, tratará de frustrar sus planes. Caratulas [Hidden Content]
  45. 1 point
     Película 1 - La leyenda de Shen Ron La Leyenda de Shen-Ron es la primera película animada de Dragon Ball, la cual vio la luz en el año de 1986. Cuenta la leyenda que hay siete esferas de dragón en distintos puntos de la tierra. Aquél que logre juntarlas podrá invocar al dragón Shen-Ron, quien es capaz de cumplir cualquier deseo. Película 2 - La princesa durmiente en el Castillo embrujado Esta historia es una continuación directa de “La leyenda de Shen Long”. Para poder ser aceptados como alumnos, Goku y Krilin deben cumplir una misión especial: salvar a la bella durmiente que descansa en el castillo del mal. Película 3 - Una aventura mística Una aventura mística, es la tercera película de la exitosa serie Dragon Ball, estrenada en 1988. Esta cinta es una continuación de “La princesa durmiente en el Castillo embrujado”. El Maestro Roshi lleva a Krilin y Goku al Torneo de las Artes Marciales. Todo parece estar bien pero no contaban con que en el reino de Milaf están buscando las esferas del dragón y para ello han construido un radar. Caratulas [Hidden Content] Este es mi primer Post... espero este bien... Tengo varias Covers de bluray para subir y las ire subiendo de a poco... si necesitan alguna en especial me avisan a ver si la tengo o la puedo conseguir. saludos
×
×
  • Create New...