Mostrando resultados para las etiquetas 'DVD'. - Cyber Team Saltar al contenido
News Ticker
  • News ticker sample
  • News ticker sample

Buscar en la comunidad

Mostrando resultados para las etiquetas 'DVD'.

  • Buscar por etiquetas

    Escribe las etiquetas separadas por comas.
  • Buscar por autor

Tipo de contenido


Foros

  • Cyber-Team
    • Noticias Web
    • Noticias y Actualizaciones
    • Konnichiwa (Hola) and Sayonara (Adiós)
    • Tutoriales
    • Sugerencias / Ayuda
    • Catálogos
    • Audios
    • Off-Topic
    • Descargas Off-Topic
  • Fansub´s
    • Fansubs
    • Cyber-Team
    • Fansubber
  • Descarga Directa de Anime
    • Anime Sub
    • Anime en tu Idioma
    • Juegos Anime
    • Peticiones
  • Descarga Directa de Hentai
    • Hentai +18
    • Juegos Hentai
    • Peticiones
  • Descarga Directa de Mangas y Artbook
    • Artbook, Mangas, Doujins y Comics
    • BD y DVD booklet
    • Peticiones
  • Descarga Directa de OST-JMusic-AMV
    • OST
    • J-Music
    • AMV
    • Peticiones
  • CT-RAWS
    • Anime Raw´s
    • Hentai Raw´s
    • Mangas Raw´s
    • Peticiones
  • Zona Donadores
    • Anime Sub
    • Anime en tu Idioma
    • Hentai +18
    • Peticiones

Encontrar resultados en...

Encontrar resultados que...


Fecha creación

  • Inicio

    Fin


Última actualización

  • Inicio

    Fin


Filtrar por número de...

Se unió

  • Inicio

    Fin


Grupo


Encontrado 43 resultados

  1. Jiro Horikoshi, que sueña con volar y diseñar hermosos aviones, se inspira en el famoso diseñador aeronáutico italiano Caproni. Corto de vista desde niño y por ello incapaz de volar, se une a la división aeronáutica de una compañía de ingeniería en 1927. Su genio pronto es reconocido y se convierte en uno de los más prestigiosos diseñadores aeronáuticos. Film biográfico que recrea hechos históricos que marcaron su vida, como el terremoto de Kanto de 1923, la Gran Depresión, la epidemia de tuberculosis y la entrada de Japón en la Segunda Guerra Mundial. Nombre: Kaze Tachinu Año: 2013 Peso: 174 MB Formato: AC3 2.0 Format : AC-3 Format/Info : Audio Coding 3 Commercial name : Dolby Digital Duration : 2 h 6 min Bit rate mode : Constant Bit rate : 192 kb/s Channel(s) : 2 channels Channel layout : L R Sampling rate : 48.0 kHz Frame rate : 31.250 FPS (1536 SPF) Bit depth : 16 bits Compression mode : Lossy Stream size : 174 MiB (100%) Service kind : Complete Main [Contenido oculto]
  2. RafaMR14

    DVDFull A Silent Voice

    Seis años después de haber atormentado a una compañera de clase sorda, Shoya busca la forma de comunicarse con ella para disculparse. Shoya Ishida es un estudiante de primaria problemático cuya principal misión en la vida es encontrar las formas menos apropiadas de combatir el aburrimiento. Es por eso que cuando Shoko Nishimiya, una niña sorda, es trasladada a su clase se convierte inmediatamente en blanco de sus burlas. Su acoso llega hasta tal punto que el resto de la clase acaba dándole la espalda por su falta de compasión. Seis años después, convertido en un estudiante de instituto solitario y atormentado por lo que hizo en el pasado, Shoya busca la forma de comunicarse con Shoko para disculparse. De esta forma, comienza su particular camino hacia la redención, pero, ¿es posible que ya sea demasiado tarde? Nombre: A Silent Voice Año: 2016 Episodios: 1 Peso: 4,3 GB Formato: PAL, Subtitulado Duración: 129 minutos Pantalla: 16:9 Audios: Japonés (DD 5.1), Castellano (DD 5.1) Subtítulos: Castellano Menú: Si Extras: Si Genero: Drama, Romántica www.cyber-team.ws
  3. Colección con todas las películas de Dragon Ball, Dragon Ball Z y Dragon Ball GT Incluye el Audio Latino, consta de 2 volúmenes separados en 4 dvd cada uno sumando un total de 17 películas. Manteniendo su menú original y calidad excelente. Caratula y discos [Contenido oculto] Tengo varias Covers de bluray para subir y las ire subiendo de a poco... si necesitan alguna en especial me avisan a ver si la tengo o la puedo conseguir. saludos
  4. Lupin, un elegante y atlético ladrón, y su compañero Jigen viajan al pequeño ducado europeo de Cagliostro. Allí ayudarán a la bella Clarice, que intenta librarse del temible Conde Cagliostro, e intentarán resolver el misterio de un tesoro oculto que data del siglo XV. Nombre: Rupan Sansei: Kariosutoro no Shiro Año: 1979 Peso: 137 MB Formato: AC3 2.0 Format : AC-3 Format/Info : Audio Coding 3 Format settings, Endianness : Big Duration : 1 h 39 min Bit rate mode : Constant Bit rate : 192 kb/s Channel(s) : 2 channels Channel positions : Front: L R Sampling rate : 48.0 kHz Frame rate : 31.250 FPS (1536 SPF) Bit depth : 16 bits Compression mode : Lossy Stream size : 137 MiB (100%) [Contenido oculto]
  5. Narra la historia de Sophie, una joven sobre la que pesa una horrible maldición que le confiere el aspecto de una anciana. Sophie decide pedir ayuda al mago Howl, que vive en un castillo ambulante, pero tal vez sea Howl quien necesite la ayuda de Sophie. Nombre: Hauru no Ugoku Shiro Año: 2004 Peso: 382 MB Formato: AC3 5.1 Format : AC-3 Format/Info : Audio Coding 3 Format settings, Endianness : Big Duration : 1 h 59 min Bit rate mode : Constant Bit rate : 448 kb/s Channel(s) : 6 channels Channel positions : Front: L C R, Side: L R, LFE Sampling rate : 48.0 kHz Frame rate : 31.250 FPS (1536 SPF) Bit depth : 16 bits Compression mode : Lossy Stream size : 382 MiB (100%) [Contenido oculto]
  6. Ilo es un satélite que observa la Tierra desde el espacio, curiosa por el funcionamiento del corazón humano. Joon es un aspirante a músico que tiene el corazón roto tras ser abandonado por su novia, y por ello termina convertido en una vaca lechera. En ese momento es cuando aparece el malvado Incinerador, dispuesto a robar los órganos de aquellas personas con el corazón roto. Viendo que Joon está en peligro, Ilo desciende a la Tierra para convertirse en una niña y ayudarle a escapar. Pero estos dos nuevos amigos no estarán solos ya que contarán con el apoyo del Mago Merlín, aunque este haya adoptado la forma de un rollo de papel higiénico. ¡Una mágica aventura acaba de empezar! Nombre: La chica satélite y el chico vaca Año: 2014 Episodios: 1 Peso: 6,44 Gb Formato: Vob Duración: 81 Min Pantalla: 16:9 Audios: Español Dolby Digital 5.1 Coreano Dolby Digital 5.1 Subtítulos: Castellano Menú: Sí Extras: Sí Genero: Animación www.cyber-team.ws
  7. Segunda Guerra Mundial (1939-1945). Seita y Setsuko son hijos de un oficial de la marina japonesa que viven en Kobe. Un día, durante un bombardeo, no consiguen llegar a tiempo al búnker donde su madre los espera. Cuando después buscan a su madre, la encuentran malherida en la escuela, que ha sido convertida en un hospital de urgencia. Nombre: Hotaru No Haka Año: 1988 Peso: 121 MB Formato: AC3 2.0 Format : AC-3 Format/Info : Audio Coding 3 Format settings, Endianness : Big Duration : 1 h 28 min Bit rate mode : Constant Bit rate : 192 kb/s Channel(s) : 2 channels Channel positions : Front: L R Sampling rate : 48.0 kHz Frame rate : 31.250 FPS (1536 SPF) Bit depth : 16 bits Compression mode : Lossy Stream size : 121 MiB (100%) [Contenido oculto]
  8. Basada en un cuento popular japonés anónimo del siglo IX, "El cortador de bambú". La historia comienza cuando una pareja de ancianos campesinos encuentra a una niña diminuta dentro de una planta de bambú, y deciden adoptarla como si fuera su hija. Pasan los años, y rápidamente se convierte en una hermosa mujer pretendida por muchos hombres poderosos. Nombre: Kaguya-hime No Monogatari Año: 2013 Peso: 441 MB Formato: AC3 5.1 Format : AC-3 Format/Info : Audio Coding 3 Format settings, Endianness : Big Duration : 2 h 17 min Bit rate mode : Constant Bit rate : 448 kb/s Channel(s) : 6 channels Channel positions : Front: L C R, Side: L R, LFE Sampling rate : 48.0 kHz Frame rate : 31.250 FPS (1536 SPF) Bit depth : 16 bits Compression mode : Lossy Stream size : 441 MiB (100%) [Contenido oculto]
  9. Un pueblo tranquilo a orillas de un lago. Saya, una adolescente más bien torpe y de buen corazón, vive allí desde que tiene uso de razón rodeada de un padre que la ama y buenas amigos y profesores en clase. Pero su apacible vida a la luz del día se convierte en puro caos cada noche cuando maneja hábilmente su espada para combatir a unas extrañas criaturas con las más diversas formas, pero con un denominador común: se alimentan de seres humanos. Después de cada victoria, regresa a casa empapada de sangre y al día siguiente todo vuelve a la normalidad. Pero pronto comienzan a aparecer pequeñas grietas en su mundo de normalidad anormal e incapaz de conectar con los sucesos que la rodean, Saya no se imagina que el verdadero horror aún está por revelarse. Nombre: Blood C Año: 2011 Episodios: 3 BD Serie + 1 BD Pelicula Peso: 27,5 GB Formato: Vob Duración: 25 min Pantalla: 16:9 Audios: Japones, Castellano Subtítulos: Español Menú: Si Extras: Si Genero: Animación www.cyber-team.ws
  10. La acción nos traslada al año 158 del nuevo calendario estelar, la humanidad ha llegado a las estrellas descubriendo la existencia de numerosas razas alienígenas. Tres grupos luchan por el poder: Las Fuerzas del Espacio, Las Ligas de Piratas y Los Outlaws. Nombre: Outlaw Star Año: 1998 Episodios: 26 Peso: 31,4 GB Formato: VOB Duración: 650 min Pantalla: 4:3 Audios: Español, Japones Subtítulos: Español Menú: Sí Extras: Sí Genero: Animación www.cyber-team.ws
  11. A mediados del siglo XIX, la Revolución Meji significó el final del Shogunato y el principio de una nueva era para Japón. La victoria del bando reformista no hubiera sido posible sin la espada de un joven e implacable asesino apodado Hitokiri Battosai que tras el final del conflicto desapareció sin dejar rastro... Diez años después, el legendario Hitokiri Battosai ha reaparecido en Tokio asesinando a todo el que se cruza en su camino. Cuando su escuela se ve implicada en los crímines, la joven Kaoru Kamiya, propietaria y muestra del dojo Kamiya, sale a su encuentro. En su ayuda acude Kenshin Himura, un espadachín vagabundo que defiende a los más débiles con su espada de filo invertido. ¿Es posible que este guerrero pelirrojo de aspecto inofensivo sea el verdadero Battosai? Aquí comienza la leyenda de Kenshin, el último samurai. Nombre: Rurôni Kenshin: Meiji Kenkaku Roman tan (Samurai X) Año: 1996 Episodios: 94 Peso: 124 Gb Formato: VOB Duración: 25 min Pantalla: 4:3 Audios: Japones, Castellano Subtítulos: Español Menú: Si Extras: Si Genero: Animación www.cyber-team.ws
  12. Narra las aventuras 9 personas secuestrados por la Organización Fantasma Negro y son convertidos en Cyborgs con habilidades sobrehumanas. Nombre: Cyborg 009 Año: 2001 Episodios: 52 Peso: 69 - 75 MB aprox. Formato: AC3 5.1 Bitrate: 448k Fuente: DVD (Solo se lanzaron 2 volumenes con los 8 primeros episodios) Format : AC-3 Format/Info : Audio Coding 3 Commercial name : Dolby Digital Duration : 23 min 2 s Bit rate mode : Constant Bit rate : 448 kb/s Channel(s) : 6 channels Channel layout : L R C LFE Ls Rs Sampling rate : 48.0 kHz Frame rate : 31.250 FPS (1536 SPF) Bit depth : 16 bits Compression mode : Lossy Stream size : 73.8 MiB (100%) Service kind : Complete Main [Contenido oculto]
  13. A causa de una mala experiencia cuando era pequeña, Jun siente un intenso dolor de estómago cada vez que intenta hablar, así que depende del e-mail y de la mensajería del móvil para comunicarse con los demás. Las cosas empiezan a cambiar cuando su tutor la incluye en un grupo de trabajo para elaborar un musical. Nombre: El Himno del Corazón Año: 2015 Episodios: 1 Peso: 7,28 Gb Formato: Vob Duración: 115 min Pantalla: 16:9 Audios: Japones, Castellano Subtítulos: Español Menú: Si Extras: Si Genero: Animación www.cyber-team.ws
  14. Hellsing relata los esfuerzos de los misteriosos y secretos Caballeros Protestantes Reales, "Hellsing" y sus combates con vampiros, ghouls y otros enemigos sobrenaturales que amenazan al reino de Inglaterra. Nombre: Herushingu (Hellsing) Año: 2001 Episodios: 13 Peso: 21,6 GB Formato: VOB Duración: 325 min Pantalla: 4:3 Audios: Español / japones Subtítulos: Español Menú: Si Extras: Si Genero: Animación www.cyber-team.ws
  15. Nobita encuentra una pequeña plantita cerca de la montaña que hay tras la escuela. Gracias al “suero de la vida vegetal”, la planta empieza a moverse por sí misma, con lo que Nobita decide quedársela. La bautiza como “Kibo” y la trata con mucho mimo, como si fuera su hermano pequeño. Un día en que Nobita y sus amigos están en la montaña con Kibo, aparece un inmenso tornado que los arrastra a su interior y les transporta a un mundo llamado Planeta Verde dominado por las plantas. Pero el Señor del Planeta Verde tiene un horrible plan: quiere llevarse todas las plantas de la Tierra. Nombre: Doraemon y el Reino de Kibo Año: 2008 Episodios: 1 Peso: 8,30 gb Formato: VOB Duración: 112 min Pantalla: 16:9 Audios: Español, Catalán, Euskera, Gallego Subtítulos: Español Menú: Si Extras: Si Genero: Animación www.cyber-team.ws
  16. Un grupo de científicos ha estado trabajando en un laboratorio secreto, tratando de crear el Pokémon más fuerte que exista. Para ello, han tomado ADN de una muestra de cabello fosilizada del legendario Pokémon Mew, utilizando el código genético de la evasiva criatura para crear a Mewtwo mediante la ingeniería biológica. Ignorantes del poder de su creación, los científicos y sus laboratorios son destruídos por Mewtwo cuando se despierta. Airado con sus creadores, Mewtwo jura vengarse del mundo… Nombre: Pokemon La Película: Mewtwo Vs. Mew. Año: 1999. Peso: 8,37 GB. Formato: DVD ISO. Duración: 01.11.57. Pantalla: 4:3. Audios: Castellano 5.1 y 2.0, Inglés 5.1 y 2.0, Alemán 5.1 y 2.0, Griego 5.1 y 2.0 y Hebreo 5.1 y 2.0. Subtítulos: Inglés, Castellano, Alemán, Griego y Hebreo. Extras: Las Vacaciones de Pikachu, Avance, Trailer Cinematográfico, Videoclip Musical de la OST. Genero: Anime, Infantil. [like] https://drive.google.com/open?id=1R_Ck5Ygj-QNFlEp6rahFYy_yOl_pvIvY Pass: srmusico[/like]
  17. Ash Ketchum, Pokémon y sus amigos llegan a la isla de Shamouti, y allí se transformarán en los protagonistas de una leyenda reencarnada; el equilibrio de la naturaleza representado por las tres poderosas aves Moltres (que domina el fuego), Zapdos (que representa los relámpagos) y Articuno (que conserva el hielo). Cuando Moltres resulta secuestrada según la profecía sólo un humano podrá salvarla. Nombre: Pokemon 2: El Poder De Uno. Año: 2000. Peso: 4,49 GB. Formato: DVD ISO. Duración: 01.17.16. Pantalla: 16:9. Audios: Castellano 5.1 y 2.0, Inglés 5.1 y 2.0, Portugués 2.0 y 5.1, Alemán 5.1 y 2.0, Griego 5.1 y 2.0 y Hebreo 5.1 y 2.0. Subtítulos: Inglés, Castellano, Alemán, Griego, Hebreo y Portugués. Extras: Corto,Cómo se hizo, Avance, Trailer Cinematográfico, Videoclips Musicales de la OST. Genero: Anime, Infantil. [like]https://drive.google.com/open?id=14jEExxLHNcI0MuIgoHXi_RGn_0OMXdiC Pass: srmusico[/like]
  18. Giovanni, el líder del Equipo Rocket ha encontrado a Mewtwo en una zona remota de la región Johto. Por otro lado, Ash y sus amigos llegan al cañón Pureza pero debido a que no lograron conseguir el autobús a tiempo, ellos deciden quedarse en la casa de Luna Carson. Cullen Calix, un investigador de medicina acompañado de una chica llamada Domino que supuestamente trabaja para el Centro Pokémon, llegan a casa de Luna para pasar la noche, sin embargo por una intervención del Equipo Rocket, Pikachu es raptado por lo que Ash y los demás van detrás de ellos. Luego de localizar a Mewtwo y avisar al escuadrón de combate del Equipo Rocket, Domino revela a todos que es un agente del Equipo Rocket conocida como 009. Mewtwo al darse cuenta del peligro que se avecinaba, decide enfrentarse a Giovanni y el Equipo Rocket. La situación de la batalla se convierte en un enfrentamiento entre la voluntad de Mewtwo y Giovanni. Mewtwo queda debilitado pero Ash lleva al clon al manantial del cañón Pureza para recuperar sus fuerzas. Luego de derrotar al Equipo Rocket, al igual que en la primera película, Mewtwo borra los recuerdos de todos a excepción de Ash y sus amigos y que a su vez decide irse a otro lugar a vivir con el grupo de pokémon clonados. Nombre: Pokemon Mewtwo: El Regreso. Año: 2002. Peso: 3,52 GB. Formato: DVD ISO. Duración: 01.00.34. Pantalla: 4:3 (16:9 El Origen De Mewtwo). Audios: Castellano 2.0, Inglés 2.0, Polaco 2.0, Húngaro 2.0, Turco 2.0. Subtítulos: Inglés y Español. Menú: Extras: El Origen De Mewtwo, Pokemon Opening, Trailer Cinematográfico. Genero: Anime, Infantil. [like] https://drive.google.com/open?id=1wNSj7zTAwMshrcFBZCyxfM34i2yg0hcn Pass: srmusico[/like]
  19. La pandilla conoce al joven Chipo, un muchacho-perro entusiasta y fantasioso decidido a desentrañar los grandes misterios de su civilización. Ante ellos se abre una emocionante aventura ya que descubrirán que una terrible amenaza se cierne sobre Animal Planet: una raza alienígena pretende invadirles y usar todos sus recursos naturales, causando la destrucción total. Vestidos con sus gorros especiales de animal y armados de sus habituales dosis de valentía y determinación, la pandilla acude en ayuda de Chipo y el resto de habitantes del mundo de los animales. ¡Juntos defenderán la naturaleza contra el peligro inminente! Nombre: Doraémon Película 11 - Doraémon Animal Planet Año: 1990 Episodios: 1 Peso: 6,94 Gb Formato: Vob Duración: 100 min Pantalla: 4:3 Audios: Español Dolby Digital 5.1, Catalán Dolby Digital. 5.1Euskera Dolby Digital 5.1, Gallego Dolby Digital 5.1 Subtítulos: Castellano Menú: Sí Extras: Sí Genero: Animación www.cyber-team.ws
  20. Nobita y sus amigos quieren irse de acampada unos días pero no consiguen ponerse de acuerdo, ¿Irán al mar o a la montaña? Por suerte, Doraemon tiene la solución perfecta: una acampada submarina mientras escalan las enormes montañas que se extienden bajo el agua. De este modo, el grupo se dirige a las profundidades del Atlántico a bordo de un hydrobuggy y allí descubren un nuevo universo. Peces abisales, fosas oceánicas, llanuras interminábles, escarpados riscos... ¡El fondo marino es un mundo lleno de misterios! Pero el más grande de ellos aún está por descubrirse... Y es que en lo más profundo del océano ¡moran los habitantes del fondo marino! Son seres humanos normales y corrientes, pero que han desarrollado sus ciudades bajo el mar y las han unido al amparo de dos grandes federaciones: Mu y Atlantis. Nombre: Doraémon Película 04 - Doraémon Atlantis - El Castillo del mal Año: 1983 Episodios: 1 Peso: 5,35 Gb Formato: Vob Duración: 97 Min Pantalla: 16:9 Audios: Español Dolby Digital 5.1, Japonés Dolby Digital 5.1, Catalán Dolby Digital 5.1 Subtítulos: Castellano Menú: Sí Extras: Sí Genero: Animación www.cyber-team.ws
  21. Año 2131. La última ciudad de la Tierra, Olympus, se alza desde las cenizas de una guerra global sobre los hombros de los Bioroides, clones artificiales que constituyen la mitad de la población de la ciudad. Bajo la estricta guía de un superordenador, los últimos supervivientes de la humanidad disfrutan de una paz idílica… pero sólo en apariencia. Terroristas humanos dentro de las fuerzas militares buscan un regreso al poder y chocan de frente con las fuerzas ESWAT lideradas por la legendaria soldado Deunan Knute y su novio cyborg 75% máquina. Deunan tendrá que hacer frente a su pasado y sobreponerse al presente en una batalla sin tregua con el futuro de la humanidad en juego. Nombre: Appleseed - The Beginning Año: 2004 Episodios: 2 Peso: 10,8 Gb Formato: Vob Duración: 104 Min Pantalla:4:3 Audios: Japones, Latino, Castellano Subtítulos: Frances, Ingles, Español Menú: Si Extras: Si Genero: Animación www.cyber-team.ws
  22. Hiroshi se hace daño en la espalda al intentar jugar a los robots con Shin Chan. Misae le regaña por hacer el bruto en lugar de ocuparse de las cosas de la casa. Molesto y dolorido, Hiroshi decide ir al médico, pero se lo encuentra cerrado. A la vuelta, se encuentra con una misteriosa mujer que le ofrece un masaje gratis en un nuevo centro de estética. Hiroshi acepta, pero cuando el masaje termina y vuelve a casa, descubre que se ha convertido en un robot. Misae no se cree que sea el verdadero Hiroshi: no le deja entrar en casa e incluso avisa a la policía. Pero cuando estos investigan, el centro de estética donde le dieron el masaje a Hiroshi se ha desvanecido en el aire. Después de que Hiroshi-robot salve a Shin Chan y a sus amigos de un terrible accidente, Misae le acepta como al verdadero Hiroshi y parece que todos vuelven a vivir felices hasta que la misteriosa mujer vuelve a aparecer ante Shin Chan y le entrega un bigote que cambiará por completo la personalidad de Hiroshi-rob. Nombre: Shin Chan Papa Robot Año: 2014 Episodios: 1 Peso: 5.59 Gb Formato: VOB Duración: 91 min Pantalla: 16:9 Audios: Japones, Castellano Subtítulos: Español Menú: Si Extras: Si Genero: Animación www.cyber-team.ws
  23. En el Hotel de Hojalata todas las habitaciones y todos los servicios están a disposición de Doraemon y de sus amigos, sólo hay una prohibición: no pueden entrar en la habitación del sótano. Mientras están disfrutando del Hotel y de la increible oferta de actividades que se pueden desarrollar, son atacados y Doraemon es raptado. Sabio Galión, el propietario del hotel, les explica que se trata del Ejército Rebelde de Robots liderado por el Dr. Napojistra, que tiene prisionero a toda la población del planeta Chamocha y los convence para que le ayuden a liberarles a ellos y a Doraemon. Para vencer hay que llegar hasta el centro del laberinto y descubrir su secreto, secreto que descubrirá la única forma de vencer al temible Dr. Napojistra y liberar a Doraemon y a los ciudadanos de Chamocha. Nuestros amigos conducirán enormes camiones, navegarán en submarino sin tripulación ¡incluso volarán en el trineo de Papá Noel! Hay muchos secretos y misterios en Doraemon y el Secreto del Laberinto. Nombre: Doraémon y el Secreto del Laberinto Año: 2002 Episodios: 1 Peso: 4.32 gb Formato: VOB Duración: 96 min Pantalla: 4:3 Audios: Español, Catalán Subtítulos: no Menú: si Extras: si Genero: Animación www.cyber-team.ws
  24. En esta película, ambientada en el desierto del lejano oriente, Doraemon, el gato-robot del siglo XXII, saca de su bolsillo una zapatillas que la calzarlas lee permiten sumergirse en el fantástico mundo de los libros y vivir las aventuras de sus protagonistas. Pero un descuido deja a Shizuka atrapada dentro de uno de ellos, en un país lejano donde será raptada por el malvado Abujil. Y... ¡toda la pandilla se lanzará al rescate y vivirán la mayor aventura de sus vidas! ¡Volarán en alfombras mágicas, se enfrentarán a genios de lámpara, navegarán en barcos piratas y sortearán gigantes olas tras naufragar, abrirán grandes puertas que le dirigirán a un fantástico y sorprendente castillo con un secreto jamás contado...! ¿Conseguirán nuestros amigos traer a Shizuka de regreso a casa? ¡Las mil y una aventuras acaban de empezar! Nombre: Doraémon y las Mil y una Aventuras Año: 2001 Episodios: 1 Peso: 4.23 gb Formato: VOB Duración: 100 min Pantalla: 4:3 Audios: Español, Catalán Subtítulos: No Menú: Si Extras: Si Genero: Animacion www.cyber-team.ws
  25. Serie de TV (2006). 25 episodios. En esta era de deportes y juegos extremos, ocurre algo inesperado, y eso es el Air Treck. Es la historia de un chico llamado Ikki, que al descubrir el Air Treck, abre su mundo a un nuevo nivel. El pequeño sabe lo que es desenvolverse en este mundo de 'Guerras' y peligrosos trucos que solo con Air Treck se pueden hacer. Ikki va a formar parte de un grupo y forja su propio destino. Nombre: Air Gear Año: 2006 Episodios: 25 Peso: 32 Gb Formato: .Vob Duración: 625 min Pantalla: 4:3 y 16:9 peor imposible esta edicion Audios: Japones, Castellano Subtítulos: Español Menú: Si Extras: No Genero: Animación www.cyber-team.ws
×