Jump to content
News Ticker
  • News ticker sample
  • News ticker sample

Search the Community

Showing results for tags '2017'.



More search options

  • Search By Tags

    Type tags separated by commas.
  • Search By Author

Content Type


Forums

  • Cyber-Team
    • Web News
    • News and Updates
    • Konnichiwa (Hello) and Sayonara (Goodbye)
    • Tutorials
    • Suggestions / Help
    • Anime in general
    • Manga and Light Novel in general
    • Comics in general
    • Catalogs
    • Audios
    • Off-Topic
    • Downloads Off-Topic
  • Fansub´s
    • Fansubs
    • Cyber-Team
    • Fansubber
  • Download Anime
    • Anime Sub
    • Anime in your Language
    • Anime Games
    • Request
  • Download of Mangas and Artbook
    • Artbook, Mangas, Comics and Light Novels
    • BD and DVD booklet
    • Requests
  • Download of OST-JMusic-AMV
    • OST
    • J-Music
    • AMV
    • Peticiones
  • CT-RAWS
    • Anime Raw´s
    • Hentai Raw´s
    • Mangas and Light Novels Raw´s
    • Request
  • Subscribers Area
    • Anime Sub
    • Anime in your Language
    • Hentai +18
    • Raws
    • Request

Find results in...

Find results that contain...


Date Created

  • Start

    End


Last Updated

  • Start

    End


Filter by number of...

Joined

  • Start

    End


Group


About Me

Found 2 results

  1. Nazuna está triste porque le obligan a cambiar de escuela. La niña planea fugarse junto a su compañero Norimichi, pero su madre los pilla y la arrastra a casa. Todo podría haber acabado allí, pero el hallazgo de una misteriosa esfera luminosa abre un portal en el tiempo, haciendo posible que la historia tenga otro final... Nombre: Uchiage Hanabi, Shita kara miru ka? Yoko kara miru ka? Año: 2017 Peso: 247 MB Formato: AC3 5.1 Format : AC-3 Format/Info : Audio Coding 3 Commercial name : Dolby Digital Duration : 1 h 30 min Bit rate mode : Constant Bit rate : 384 kb/s Channel(s) : 6 channels Channel layout : L R C LFE Ls Rs Sampling rate : 48.0 kHz Frame rate : 31.250 FPS (1536 SPF) Bit depth : 16 bits Compression mode : Lossy Stream size : 247 MiB (100%) Service kind : Complete Main [Hidden Content]
  2. Mary es una niña que vive con su tía abuela Charlotte en el campo, donde no pasa casi nada. Un día sigue a un misterioso gato hasta el bosque y descubre un viejo palo de escoba y una extraña flor que sólo florece cada siete años en ese mismo bosque. El palo de escoba y la flor llevarán a Mary por encima de las nubes hasta Endor College, una escuela de magia dirigida por Madam Mumblechook y el brillante Doctor Dee. Pero allí suceden cosas extrañas y Mary tendrá que arriesgar su vida para que todo vaya bien. Nombre: Meari to majo no hana Año: 2017 Peso: 282 MB Formato: AC3 5.1 Format : AC-3 Format/Info : Audio Coding 3 Commercial name : Dolby Digital Duration : 1 h 42 min Bit rate mode : Constant Bit rate : 384 kb/s Channel(s) : 6 channels Channel layout : L R C LFE Ls Rs Sampling rate : 48.0 kHz Frame rate : 31.250 FPS (1536 SPF) Bit depth : 16 bits Compression mode : Lossy Stream size : 282 MiB (100%) Service kind : Complete Main [Hidden Content]
×
×
  • Create New...