Jump to content
News Ticker
  • News ticker sample
  • News ticker sample

Search the Community

Showing results for tags '5.1'.



More search options

  • Search By Tags

    Type tags separated by commas.
  • Search By Author

Content Type


Forums

  • Cyber-Team
    • Web News
    • News and Updates
    • Konnichiwa (Hello) and Sayonara (Goodbye)
    • Tutorials
    • Suggestions / Help
    • Anime in general
    • Manga and Light Novel in general
    • Comics in general
    • Catalogs
    • Audios
    • Off-Topic
    • Downloads Off-Topic
  • Fansub´s
    • Fansubs
    • Cyber-Team
    • Fansubber
  • Download Anime
    • Anime Sub
    • Anime in your Language
    • Anime Games
    • Request
  • Download of Mangas and Artbook
    • Artbook, Mangas and Comics
    • BD and DVD booklet
    • Requests
  • Download of OST-JMusic-AMV
    • OST
    • J-Music
    • AMV
    • Peticiones
  • CT-RAWS
    • Anime Raw´s
    • Hentai Raw´s
    • Mangas Raw´s
    • Request
  • Subscribers Area
    • Anime Sub
    • Anime in your Language
    • Hentai +18
    • Request

Find results in...

Find results that contain...


Date Created

  • Start

    End


Last Updated

  • Start

    End


Filter by number of...

Joined

  • Start

    End


Group


About Me

Found 6 results

  1. Segunda Guerra Mundial (1939-1945). Seita y Setsuko son hijos de un oficial de la marina japonesa que viven en Kobe. Un día, durante un bombardeo, no consiguen llegar a tiempo al búnker donde su madre los espera. Cuando después buscan a su madre, la encuentran malherida en la escuela, que ha sido convertida en un hospital de urgencia. Nombre: Hotaru No Haka Año: 1988 Peso: 284 MB Formato: AC3 5.1 Format : AC-3 Format/Info : Audio Coding 3 Commercial name : Dolby Digital Duration : 1 h 28 min Bit rate mode : Constant Bit rate : 448 kb/s Channel(s) : 6 channels Channel layout : L R C LFE Ls Rs Sampling rate : 48.0 kHz Frame rate : 31.250 FPS (1536 SPF) Bit depth : 16 bits Compression mode : Lossy Stream size : 284 MiB (100%) Service kind : Complete Main [Hidden Content]
  2. “Yu-Gi-Oh!: The Dark Side of Dimensions” se lleva a cabo un año después de los eventos ocurridos en Yu-Gi-Oh! Duel Monsters. KaibaCorp está recuperando las piezas del Rompecabezas del Milenio el cuál se encuentra en las ruinas de la Cámara del Milenio. Kaiba planea revivir a Atem para saldar de una vez por toda su rivalidad. Diva interrumpe la operación y reta a Kaiba a un Duelo dónde roba dos de las piezas del recién recuperado rompecabezas. Yugi y sus amigos por otro lado se encuentran pensando que harán después de graduarse, sin saber que el duelo más importante de todos está por comenzar. ¡El riesgo nunca había sido tan alto, ni el nivel de los rivales, un movimiento equivocado y todo terminará! “Yu-Gi-Oh!: The Dark Side of Dimensions” es un regreso espectacular de la franquicia con varios de los personajes más queridos de los fans como Yugi Muto, Seto Kaiba, y sus amigos Joey, Tristan, Téa y Bakura. Nombre: Yu-Gi-Oh!: The Dark Side of Dimensions Año: 2016 Peso: 354 MB Formato: AC3 5.1 Fuente: iTunes, se trata del doblaje basura de Optimedia Bond. Publicado por 4k Media. Format : AC-3 Format/Info : Audio Coding 3 Commercial name : Dolby Digital Duration : 2 h 8 min Bit rate mode : Constant Bit rate : 384 kb/s Channel(s) : 6 channels Channel layout : L R C LFE Ls Rs Sampling rate : 48.0 kHz Frame rate : 31.250 FPS (1536 SPF) Bit depth : 16 bits Compression mode : Lossy Stream size : 354 MiB (100%) Service kind : Complete Main [Hidden Content]
  3. Shoya era un niño que molestó a Shoko la nueva niña del salón por ser sorda. Las burlas de este continuaron hasta que Shoko se cambió de escuela. Varios años después un atormentado Shoya busca reencontrarse con su ex-compañera y redimirse ¿Podrá ella perdonarlo o será demasiado tarde? Nombre: Koe No Katachi Año: 2016 Peso: 417 MB Formato: AC3 5.1 Fuente: Extraído del aporte de New Vicious y publicado aquí con su permiso. Format : AC-3 Format/Info : Audio Coding 3 Commercial name : Dolby Digital Duration : 2 h 10 min Bit rate mode : Constant Bit rate : 448 kb/s Channel(s) : 6 channels Channel layout : L R C LFE Ls Rs Sampling rate : 48.0 kHz Frame rate : 31.250 FPS (1536 SPF) Bit depth : 16 bits Compression mode : Lossy Stream size : 417 MiB (100%) [Hidden Content]
  4. La serie narra los hechos ocurridos en la guerra santa del siglo XVIII. Nombre: Saint Seiya: The Lost Canvas - Hades Mythology Año: 2009 Episodios: 26 Peso: 90 - 120 mb aprox. Formato: AC3 5.1 Bitrate: 640 kbps (Episodio 1 al 13) 512 kbps (episodio 14 al 26) Idioma: Latino Subtitulos: Latino (PGS) Audio Format : AC-3 Format/Info : Audio Coding 3 Format settings, Endianness : Big Duration : 24 min 33 s Bit rate mode : Constant Bit rate : 512 kb/s Channel(s) : 6 channels Channel positions : Front: L C R, Side: L R, LFE Sampling rate : 48.0 kHz Frame rate : 31.250 FPS (1536 SPF) Bit depth : 16 bits Compression mode : Lossy Stream size : 89.9 MiB (100%) Service kind : Complete Main [Hidden Content]
  5. Narra la historia de Sophie, una joven sobre la que pesa una horrible maldición que le confiere el aspecto de una anciana. Sophie decide pedir ayuda al mago Howl, que vive en un castillo ambulante, pero tal vez sea Howl quien necesite la ayuda de Sophie. Nombre: Hauru no Ugoku Shiro Año: 2004 Peso: 382 MB Formato: AC3 5.1 Format : AC-3 Format/Info : Audio Coding 3 Format settings, Endianness : Big Duration : 1 h 59 min Bit rate mode : Constant Bit rate : 448 kb/s Channel(s) : 6 channels Channel positions : Front: L C R, Side: L R, LFE Sampling rate : 48.0 kHz Frame rate : 31.250 FPS (1536 SPF) Bit depth : 16 bits Compression mode : Lossy Stream size : 382 MiB (100%) [Hidden Content]
  6. Narra las aventuras 9 personas secuestrados por la Organización Fantasma Negro y son convertidos en Cyborgs con habilidades sobrehumanas. Nombre: Cyborg 009 Año: 2001 Episodios: 52 Peso: 69 - 75 MB aprox. Formato: AC3 5.1 Bitrate: 448k Fuente: DVD (Solo se lanzaron 2 volumenes con los 8 primeros episodios) Format : AC-3 Format/Info : Audio Coding 3 Commercial name : Dolby Digital Duration : 23 min 2 s Bit rate mode : Constant Bit rate : 448 kb/s Channel(s) : 6 channels Channel layout : L R C LFE Ls Rs Sampling rate : 48.0 kHz Frame rate : 31.250 FPS (1536 SPF) Bit depth : 16 bits Compression mode : Lossy Stream size : 73.8 MiB (100%) Service kind : Complete Main [Hidden Content]
×
×
  • Create New...