Jump to content
News Ticker
  • Nuevo Precio en la Suscripcion, agradecemos su apoyo
  • Se agrego publicidad a la web apoyanos dando un click al dia en ella

Search the Community

Showing results for tags 'Bluray'.



More search options

  • Search By Tags

    Type tags separated by commas.
  • Search By Author

Content Type


Forums

  • Cyber-Team
    • Web News
    • News and Updates
    • Konnichiwa (Hello) and Sayonara (Goodbye)
    • Tutorials
    • Suggestions / Help
    • Anime in general
    • Manga and Light Novel in general
    • Comics in general
    • Catalogs
    • Audios
    • Off-Topic
    • Downloads Off-Topic
  • Fansub´s
    • Fansubs
    • Cyber-Team
    • Fansubber
  • Download Anime
    • Anime Sub
    • Anime in your Language
    • Anime Games
    • Request
  • Download of Mangas and Artbook
    • Artbook, Mangas, Comics and Light Novels
    • BD and DVD booklet
    • Requests
  • Download of OST-JMusic-AMV
    • OST
    • J-Music
    • AMV
    • Peticiones
  • CT-RAWS
    • Anime Raw´s
    • Hentai Raw´s
    • Mangas and Light Novels Raw´s
    • Request
  • Subscribers Area
    • Anime Sub
    • Anime in your Language
    • Hentai +18
    • Raws
    • Request

Find results in...

Find results that contain...


Date Created

  • Start

    End


Last Updated

  • Start

    End


Filter by number of...

Joined

  • Start

    End


Group


About Me

Found 45 results

  1.  Película 1 - La leyenda de Shen Ron La Leyenda de Shen-Ron es la primera película animada de Dragon Ball, la cual vio la luz en el año de 1986. Cuenta la leyenda que hay siete esferas de dragón en distintos puntos de la tierra. Aquél que logre juntarlas podrá invocar al dragón Shen-Ron, quien es capaz de cumplir cualquier deseo. Película 2 - La princesa durmiente en el Castillo embrujado Esta historia es una continuación directa de “La leyenda de Shen Long”. Para poder ser aceptados como alumnos, Goku y Krilin deben cumplir una misión especial: salvar a la bella durmiente que descansa en el castillo del mal. Película 3 - Una aventura mística Una aventura mística, es la tercera película de la exitosa serie Dragon Ball, estrenada en 1988. Esta cinta es una continuación de “La princesa durmiente en el Castillo embrujado”. El Maestro Roshi lleva a Krilin y Goku al Torneo de las Artes Marciales. Todo parece estar bien pero no contaban con que en el reino de Milaf están buscando las esferas del dragón y para ello han construido un radar. Caratulas [Hidden Content] Este es mi primer Post... espero este bien... Tengo varias Covers de bluray para subir y las ire subiendo de a poco... si necesitan alguna en especial me avisan a ver si la tengo o la puedo conseguir. saludos
  2. Aqui va la sinopsis de la serie [Hidden Content] Tengo varias Covers de bluray para subir y las ire subiendo de a poco... si necesitan alguna en especial me avisan a ver si la tengo o la puedo conseguir. saludos www.cyber-team.ws
  3. Aqui va la sinopsis de la serie [Hidden Content] Tengo varias Covers de bluray para subir y las ire subiendo de a poco... si necesitan alguna en especial me avisan a ver si la tengo o la puedo conseguir. saludos www.cyber-team.ws
  4. [Hidden Content] www.cyber-team.ws
  5. [Hidden Content] www.cyber-team.ws
  6. Gogeta2

    Bluray Saint Seiya Covers

    [Hidden Content] www.cyber-team.ws
  7. La colección de las películas de studio Ghibli, viene el cover para bluray el in-lay y el label para imprimir en el disco, espero les sirva y les guste saludos amigos. [Hidden Content]
  8. gustrag00

    Bluray Akira Bluray

    Acá les dejo este clásico el cover de la película en bluray y los Labels [Hidden Content]
  9. les traigo los covers de esta seria muy buena espero les sirva saludos. [Hidden Content]
  10. [Hidden Content] engo varias Covers de bluray para subir y las ire subiendo de a poco... si necesitan alguna en especial me avisan a ver si la tengo o la puedo conseguir. saludos www.cyber-team.ws
  11. La historia gira en torno a una joven llamada Shōko quien busca a su hermana a la que no ve desde hace tiempo, pero por azares del destino, acabará convirtiéndose en la Santo de bronce de Equuleus al servicio de Saori Kido quien es la reencarnación de la diosa griega Athena en la Tierra con quien deberá luchar, junto a otros Santos de Atenea, contra las fuerzas del mal. Nombre: Saint Seiya Saintia Sho VOL.1 Año: 2018 Capítulos: 5 Peso: 36.1 gb Formato: Bluray - BDMV Audio: Japones Genero: Artes marciales, Drama, fantasía [Hidden Content] jpo178
  12. [Hidden Content] Tengo varias Covers de bluray para subir y las ire subiendo de a poco... si necesitan alguna en especial me avisan a ver si la tengo o la puedo conseguir. saludos www.cyber-team.ws
  13. Acá les dejo el cover para bluray y el label de esta excelente película [Hidden Content]
  14. DarkCamuz22

    BDMV Dororo Blu-ray BOX + Scan

    El padre de Hyakkimaru es un ambicioso guerrero que concede a cuarenta y ocho demonios las cuarenta y ocho partes del cuerpo de su hijo recién nacido a cambio de que le otorguen el dominio de Japón. Hyakkimaru es abandonado a su suerte por orden de su padre, tras esto lo rescata un doctor que consigue reconstruirlo con prótesis de madera. Cuando se hace mayor, Hyakkimaru decide recuperar sus cuarenta y ocho partes perdidas, venciendo a cada uno de los demonios con los que pactó su padre. En su búsqueda se le une Dororo, una pequeña ladronzuela huérfana. Nombre: Dororo どろろ Año: 7/09/2019 Episodios: 24 Peso: 164 GB Formato: BD50GB Genero: Fantasía oscura, sobrenatural Idioma: Japones Menú: Si Subtitulos: No [Hidden Content] www.cyber-team.ws
  15. [Hidden Content]
  16. La historia se centra en Light Yagami, un estudiante de bachillerato. Un día, encuentra un cuaderno con poderes sobrenaturales llamado «Death Note», con el cual es capaz de matar personas si se escriben los nombres de estas en él, a la vez que si el portador visualiza mentalmente la cara de quien quiere asesinar.8 Light, percatándose del potencial del cuaderno, intenta eliminar a todos los criminales y crear un mundo donde no exista la maldad; sin embargo, un misterioso detective privado que se hace llamar L, famoso mundialmente por resolver grandes casos en el pasado, tratará de frustrar sus planes. Caratulas [Hidden Content]
  17. Segunda Guerra Mundial (1939-1945). Seita y Setsuko son hijos de un oficial de la marina japonesa que viven en Kobe. Un día, durante un bombardeo, no consiguen llegar a tiempo al búnker donde su madre los espera. Cuando después buscan a su madre, la encuentran malherida en la escuela, que ha sido convertida en un hospital de urgencia. Nombre: Hotaru No Haka Año: 1988 Peso: 284 MB Formato: AC3 5.1 Format : AC-3 Format/Info : Audio Coding 3 Commercial name : Dolby Digital Duration : 1 h 28 min Bit rate mode : Constant Bit rate : 448 kb/s Channel(s) : 6 channels Channel layout : L R C LFE Ls Rs Sampling rate : 48.0 kHz Frame rate : 31.250 FPS (1536 SPF) Bit depth : 16 bits Compression mode : Lossy Stream size : 284 MiB (100%) Service kind : Complete Main [Hidden Content]
  18. Sakura Kinomoto, una pequeña niña de diez años que accidentalmente libera un conjunto de cartas que se encontraban dentro de un libro, el cual había descubierto en la biblioteca de su padre. Tras esto, Kero —el guardián del libro— emerge y, al enterarse de que la mayoría de las cartas conocidas como las «cartas Clow» se habían esparcido por todas partes, le dice a Sakura que ahora es su responsabilidad convertirse en una «cardcaptor» e ir en busca de ellas para evitar que ocurra una «catástrofe» en el mundo. [Hidden Content] www.cyber-team.ws
  19. Nombre: Dragon ball super Broly Año: 2018 Formato: JPG Genero: Animación [Hidden Content] https://mega.nz/#!LzRRCAYb!jn2EdbfKRQVOYbmZxrdbBwwKxlEbhY_m3tIvZkhboNg https://mega.nz/#!riAFCCTS!q6lyki5MUPlXn4k3xqyobjQnHwRFRSYmOWppdyw7oLY
  20. ¡Bienvenido al post definitivo de la película Pokémon 2: El Poder de Uno! Os presentamos el post más completo realizado hasta la fecha y con la mejor calidad de imagen HD 1080p y audio posible. Incluye 9 Idiomas, ¡Todos ellos en alta calidad AC3 5.1 Para que podáis disfrutar de la mejor experiencia Pokémon en vuestro idioma! También tenéis disponible el corto de Pikachu El Recate ¿A qué esperas? ¡Pon las palomitas en el microondas y a disfrutar! Nombre: Pokémon 2 - El Poder de Uno. Año: 1999/2000/ Remaster 2015. Peso: 11,89 GB. Calidad: BD RIP. Formato: MKV. Resolución: 1920 x 1080p. Duración: 1h y 20 min. Pantalla: 16:9. Idiomas: Español Castellano 5.1., Inglés 5.1, Japonés 5.1, Español Latino 5.1,Alemán 5.1,Portugués 5.1,Portugués de Brazil 5.1,Griego 5.1, Hebreo 5.1. Genero: Shonen INFORMACIÓN TÉCNICA: NOTAS DE LOS EDITORES: Hemos realizado todo el proceso de edición con una exigencia y calidad 100% profesional. Sincronizado al milímetro los audios para que coincidan. El video ha sido codificado en base al blu ray internacional Autraliano, el cual curiosamente tiene aún mejor calidad de imagen que el Blu Ray Japonés. Ha sido codificado al milímetro para no perder nada de calidad de imagen y tener un peso óptimo para el valor de la película. Los audios han sido extraídos, editados y sincronizados de los dvds originales de cada país. Si solo deseáis conservar el audio español, podéis quitarle el resto de audios con MKVToolNix. Ash y sus amigos están ahora viajando por las Islas Naranja; ¡pero incluso esta aparentemente tranquila conjunto de islas,desperdigada por las aguas muy al sur de Kanto, tiene sus propios misterios, aventuras y Pokémon Legendarios! Lawrence III seguramente lo sabe, por eso ahora estará viajando a las diferentes islas para capturar a los tres pájaros Legendarios: Moltres, Articuno y Zapdos. Pero incluso con toda su fortaleza, estos tres son solo una piedra en el camino hacia una recompensa mucho más grande: ¡Lugia, el guardián del mar! Cuando nuestros protagonistas están cansados , una serie de acontecimientos suceden y sus Pokémon comienzan una nueva aventura inesperada. ¡Descúbrelo en la fantástica segunda historia de Pikachu! Tenéis el cortometraje disponible en HD 1080p en Español 5.1, Español Latino 5.1, Inglés 5.1, Japonés 5.1, Griego 5.1,Alemán 5.1 y Hebreo 5.1. [Hidden Content] Fabrebatalla18 Srmusico DragsterPS CyberTeam New_Vicious Sergioct6 Hectorevil
  21. Gogeta2

    Bluray A-Channel Cover

    [Hidden Content] www.cyber-team.ws
  22. Gogeta2

    Bluray Clannad Bluray

    Clannad narra la historia de Okazaki Tomoya, un melancólico estudiante de tercer año de preparatoria. Al morir su madre cuando él era joven, queda en custodia de Naoyuki, su padre, quien al verse afectado por esta trágica pérdida acaba hundido en el juego y el alcohol [Hidden Content] www.cyber-team.ws
  23. En un futuro lejano, mil años después de una guerra de carácter apocalíptico, la Tierra aparece cubierta de bosques plagados de hongos venenosos y de insectos gigantescos. Los hombres han sido diezmados; los supervivientes viven en algunos poblados aislados y sobreviven a duras penas en las cercanías de un bosque contaminado con gases tóxicos e insectos mutantes gigantes, que cubren gran parte de la Tierra. Nausicaä es la princesa de El Valle de Viento, un reino minúsculo, rodeado de reinos más poderosos y hostiles. Es una guerrera que sabe pilotar naves, pero es también compasiva, tanto que se resiste a ver a los insectos como enemigos, sobre todo a los Ohms, artrópodos gigantescos y temibles por los que siente una extraña simpatía. La crisis estalla cuando el reino vecino de Tolmekia, encabezado por la princesa Kushana, invade El Valle del Viento. Nombre: Kaze no Tani no Naushika Año: 1984 Peso: 160 MB Formato: AC3 2.0 Format : AC-3 Format/Info : Audio Coding 3 Commercial name : Dolby Digital Duration : 1 h 57 min Bit rate mode : Constant Bit rate : 192 kb/s Channel(s) : 2 channels Channel layout : L R Sampling rate : 48.0 kHz Frame rate : 31.250 FPS (1536 SPF) Bit depth : 16 bits Compression mode : Lossy Stream size : 161 MiB (100%) Service kind : Complete Main [Hidden Content]
  24. Han pasado 100 años desde la derrota de Baby, la única de los guerreros Z con vida es Pan que ahora es una anciana que vive con su nieto Son Goku Jr. Pan intenta entrenarle para que se haga fuerte, pero el chico parece no haber heredado las dotes de lucha de los Saiyajin. Un día uno de los matones de la escuela le roba un bolígrafo de juguete a Goku Jr., sin que este oponga resistencia. Al enterarse, Pan se enfurece tanto que cae víctima de una insuficiencia cardíaca y es llevada al hospital. Entonces Goku Jr. decide ir a buscar las bolas de dragón de las que tanto habla su abuela y pedir al dragón que la cure. Así emprende la partida hacia el monte Paoz donde está la cabaña de su tatarabuelo Goku; De camino se encuentra con Puck, quien decide acompañarlo. Nombre: Dragon Ball GT: A Hero's Legacy Año: 1997 Peso: 60 MB Formato: AC3 2.0 Format : AC-3 Format/Info : Audio Coding 3 Duration : 44 min 11 s Bit rate mode : Constant Bit rate : 192 kb/s Channel(s) : 2 channels Channel positions : Front: L R Sampling rate : 48.0 kHz Frame rate : 31.250 FPS (1536 SPF) Bit depth : 16 bits Compression mode : Lossy Stream size : 60.7 MiB (100%) [Hidden Content]
  25. La serie narra los hechos ocurridos en la guerra santa del siglo XVIII. Nombre: Saint Seiya: The Lost Canvas - Hades Mythology Año: 2009 Episodios: 26 Peso: 90 - 120 mb aprox. Formato: AC3 5.1 Bitrate: 640 kbps (Episodio 1 al 13) 512 kbps (episodio 14 al 26) Idioma: Latino Subtitulos: Latino (PGS) Audio Format : AC-3 Format/Info : Audio Coding 3 Format settings, Endianness : Big Duration : 24 min 33 s Bit rate mode : Constant Bit rate : 512 kb/s Channel(s) : 6 channels Channel positions : Front: L C R, Side: L R, LFE Sampling rate : 48.0 kHz Frame rate : 31.250 FPS (1536 SPF) Bit depth : 16 bits Compression mode : Lossy Stream size : 89.9 MiB (100%) Service kind : Complete Main [Hidden Content]
×
×
  • Create New...