Mostrando resultados para las etiquetas 'Bluray'. - Cyber Team Saltar al contenido
News Ticker
  • News ticker sample
  • News ticker sample

Buscar en la comunidad

Mostrando resultados para las etiquetas 'Bluray'.

  • Buscar por etiquetas

    Escribe las etiquetas separadas por comas.
  • Buscar por autor

Tipo de contenido


Foros

  • Cyber-Team
    • Noticias Web
    • Noticias y Actualizaciones
    • Konnichiwa (Hola) and Sayonara (Adiós)
    • Tutoriales
    • Sugerencias / Ayuda
    • Catálogos
    • Audios
    • Off-Topic
    • Descargas Off-Topic
  • Fansub´s
    • Fansubs
    • Cyber-Team
    • Fansubber
  • Descarga Directa de Anime
    • Anime Sub
    • Anime en tu Idioma
    • Juegos Anime
    • Peticiones
  • Descarga Directa de Hentai
    • Hentai +18
    • Juegos Hentai
    • Peticiones
  • Descarga Directa de Mangas y Artbook
    • Artbook, Mangas, Doujins y Comics
    • BD y DVD booklet
    • Peticiones
  • Descarga Directa de OST-JMusic-AMV
    • OST
    • J-Music
    • AMV
    • Peticiones
  • CT-RAWS
    • Anime Raw´s
    • Hentai Raw´s
    • Mangas Raw´s
    • Peticiones
  • Zona Donadores
    • Anime Sub
    • Anime en tu Idioma
    • Hentai +18
    • Peticiones

Encontrar resultados en...

Encontrar resultados que...


Fecha creación

  • Inicio

    Fin


Última actualización

  • Inicio

    Fin


Filtrar por número de...

Se unió

  • Inicio

    Fin


Grupo


Encontrado 36 resultados

  1. Gogeta2

    Bluray Clannad Bluray

    Clannad narra la historia de Okazaki Tomoya, un melancólico estudiante de tercer año de preparatoria. Al morir su madre cuando él era joven, queda en custodia de Naoyuki, su padre, quien al verse afectado por esta trágica pérdida acaba hundido en el juego y el alcohol [Contenido oculto] www.cyber-team.ws
  2. Segunda Guerra Mundial (1939-1945). Seita y Setsuko son hijos de un oficial de la marina japonesa que viven en Kobe. Un día, durante un bombardeo, no consiguen llegar a tiempo al búnker donde su madre los espera. Cuando después buscan a su madre, la encuentran malherida en la escuela, que ha sido convertida en un hospital de urgencia. Nombre: Hotaru No Haka Año: 1988 Peso: 284 MB Formato: AC3 5.1 Format : AC-3 Format/Info : Audio Coding 3 Commercial name : Dolby Digital Duration : 1 h 28 min Bit rate mode : Constant Bit rate : 448 kb/s Channel(s) : 6 channels Channel layout : L R C LFE Ls Rs Sampling rate : 48.0 kHz Frame rate : 31.250 FPS (1536 SPF) Bit depth : 16 bits Compression mode : Lossy Stream size : 284 MiB (100%) Service kind : Complete Main [Contenido oculto]
  3. En un futuro lejano, mil años después de una guerra de carácter apocalíptico, la Tierra aparece cubierta de bosques plagados de hongos venenosos y de insectos gigantescos. Los hombres han sido diezmados; los supervivientes viven en algunos poblados aislados y sobreviven a duras penas en las cercanías de un bosque contaminado con gases tóxicos e insectos mutantes gigantes, que cubren gran parte de la Tierra. Nausicaä es la princesa de El Valle de Viento, un reino minúsculo, rodeado de reinos más poderosos y hostiles. Es una guerrera que sabe pilotar naves, pero es también compasiva, tanto que se resiste a ver a los insectos como enemigos, sobre todo a los Ohms, artrópodos gigantescos y temibles por los que siente una extraña simpatía. La crisis estalla cuando el reino vecino de Tolmekia, encabezado por la princesa Kushana, invade El Valle del Viento. Nombre: Kaze no Tani no Naushika Año: 1984 Peso: 160 MB Formato: AC3 2.0 Format : AC-3 Format/Info : Audio Coding 3 Commercial name : Dolby Digital Duration : 1 h 57 min Bit rate mode : Constant Bit rate : 192 kb/s Channel(s) : 2 channels Channel layout : L R Sampling rate : 48.0 kHz Frame rate : 31.250 FPS (1536 SPF) Bit depth : 16 bits Compression mode : Lossy Stream size : 161 MiB (100%) Service kind : Complete Main [Contenido oculto]
  4. Han pasado 100 años desde la derrota de Baby, la única de los guerreros Z con vida es Pan que ahora es una anciana que vive con su nieto Son Goku Jr. Pan intenta entrenarle para que se haga fuerte, pero el chico parece no haber heredado las dotes de lucha de los Saiyajin. Un día uno de los matones de la escuela le roba un bolígrafo de juguete a Goku Jr., sin que este oponga resistencia. Al enterarse, Pan se enfurece tanto que cae víctima de una insuficiencia cardíaca y es llevada al hospital. Entonces Goku Jr. decide ir a buscar las bolas de dragón de las que tanto habla su abuela y pedir al dragón que la cure. Así emprende la partida hacia el monte Paoz donde está la cabaña de su tatarabuelo Goku; De camino se encuentra con Puck, quien decide acompañarlo. Nombre: Dragon Ball GT: A Hero's Legacy Año: 1997 Peso: 60 MB Formato: AC3 2.0 Format : AC-3 Format/Info : Audio Coding 3 Duration : 44 min 11 s Bit rate mode : Constant Bit rate : 192 kb/s Channel(s) : 2 channels Channel positions : Front: L R Sampling rate : 48.0 kHz Frame rate : 31.250 FPS (1536 SPF) Bit depth : 16 bits Compression mode : Lossy Stream size : 60.7 MiB (100%) [Contenido oculto]
  5. La serie narra los hechos ocurridos en la guerra santa del siglo XVIII. Nombre: Saint Seiya: The Lost Canvas - Hades Mythology Año: 2009 Episodios: 26 Peso: 90 - 120 mb aprox. Formato: AC3 5.1 Bitrate: 640 kbps (Episodio 1 al 13) 512 kbps (episodio 14 al 26) Idioma: Latino Subtitulos: Latino (PGS) Audio Format : AC-3 Format/Info : Audio Coding 3 Format settings, Endianness : Big Duration : 24 min 33 s Bit rate mode : Constant Bit rate : 512 kb/s Channel(s) : 6 channels Channel positions : Front: L C R, Side: L R, LFE Sampling rate : 48.0 kHz Frame rate : 31.250 FPS (1536 SPF) Bit depth : 16 bits Compression mode : Lossy Stream size : 89.9 MiB (100%) Service kind : Complete Main [Contenido oculto]
  6. [Contenido oculto] engo varias Covers de bluray para subir y las ire subiendo de a poco... si necesitan alguna en especial me avisan a ver si la tengo o la puedo conseguir. saludos www.cyber-team.ws
  7. Gogeta2

    Bluray Baccano! Covers

    [Contenido oculto] www.cyber-team.ws
  8. Rubeu-S

    BDMV [BDMV] Blend S Vol 1

    *Imagen Ilustrativa Blend S (ブレンド・S Burendo Esu?) es un manga japonés de tira cómica de cuatro paneles escrito e ilustrado por Miyuki Nakayama. Hizo su primera aparición en la revista Manga Time Kirara Carat de Hōbunsha en la publicación de octubre de 2013. Una adaptación a anime producida por A-1 Pictures se estrenó en octubre de 2017 Argumento Maika Sakuranomiya, una chica de secundaria, tiene problemas para encontrar un trabajo de medio tiempo debido a su mirada amenazante. Sin embargo, un día se encuentra con un hombre italiano quien es también el gerente de Stile, una cafetería donde sus camareras tienen papeles únicos como tsundere y hermana menor. Maika recibe el papel de sádica debido a su mirada y tiene que adoptar una personalidad dominante y cruel al atender a los clientes, particularmente a los masoquistas. Nombre: Blend S [ブレンド・S Burendo Esu] Año: 2017 Episodios: 12 Peso: 24 gb Formato: BDMV X264 Duración: 24 min Pantalla: 1920x1080 Audios: Japonés Subtítulos: Japonés / Español Menú: Si Extras: Si Genero: Seinen www.cyber-team.ws
  9. [Contenido oculto] www.cyber-team.ws
  10. Gogeta2

    Bluray Candy Candy Covers

    Aqui va la sinopsis de la serie [Contenido oculto] Tengo varias Covers de bluray para subir y las ire subiendo de a poco... si necesitan alguna en especial me avisan a ver si la tengo o la puedo conseguir. saludos www.cyber-team.ws
  11. Gogeta2

    Bluray Cowboy Bebop Covers

    Aqui va la sinopsis de la serie [Contenido oculto] Tengo varias Covers de bluray para subir y las ire subiendo de a poco... si necesitan alguna en especial me avisan a ver si la tengo o la puedo conseguir. saludos www.cyber-team.ws
  12. Gogeta2

    Bluray Saint Seiya Covers

    [Contenido oculto] www.cyber-team.ws
  13. [Contenido oculto] Tengo varias Covers de bluray para subir y las ire subiendo de a poco... si necesitan alguna en especial me avisan a ver si la tengo o la puedo conseguir. saludos www.cyber-team.ws
  14. Gogeta2

    Bluray Gangsta Covers

    [Contenido oculto] www.cyber-team.ws
  15. Gogeta2

    Bluray Elfen Lied Covers

    [Contenido oculto] www.cyber-team.ws
  16. [Contenido oculto] www.cyber-team.ws
  17. Gogeta2

    Bluray Asura Covers

    [Contenido oculto] www.cyber-team.ws
  18. [Contenido oculto] www.cyber-team.ws
  19. Gogeta2

    Bluray Aldnoah Zero Covers

    [Contenido oculto] www.cyber-team.ws
  20. Gogeta2

    Bluray Accel World Covers

    [Contenido oculto] www.cyber-team.ws
  21. Gogeta2

    Bluray A-Channel Cover

    [Contenido oculto] www.cyber-team.ws
  22. Aqui va la sinopsis de la serie [Contenido oculto] Tengo varias Covers de bluray para subir y las ire subiendo de a poco... si necesitan alguna en especial me avisan a ver si la tengo o la puedo conseguir. saludos www.cyber-team.ws
  23. Gogeta2

    Bluray Charlotte Covers

    [Contenido oculto] Tengo varias Covers de bluray para subir y las ire subiendo de a poco... si necesitan alguna en especial me avisan a ver si la tengo o la puedo conseguir. saludos www.cyber-team.ws
×