Jump to content
News Ticker
  • News ticker sample
  • News ticker sample

Search the Community

Showing results for tags 'Luciérnagas'.



More search options

  • Search By Tags

    Type tags separated by commas.
  • Search By Author

Content Type


Forums

  • Cyber-Team
    • Web News
    • News and Updates
    • Konnichiwa (Hello) and Sayonara (Goodbye)
    • Tutorials
    • Suggestions / Help
    • Anime in general
    • Manga and Light Novel in general
    • Comics in general
    • Catalogs
    • Audios
    • Off-Topic
    • Downloads Off-Topic
  • Fansub´s
    • Fansubs
    • Cyber-Team
    • Fansubber
  • Download Anime
    • Anime Sub
    • Anime in your Language
    • Anime Games
    • Request
  • Download of Mangas and Artbook
    • Artbook, Mangas, Comics and Light Novels
    • BD and DVD booklet
    • Requests
  • Download of OST-JMusic-AMV
    • OST
    • J-Music
    • AMV
    • Peticiones
  • CT-RAWS
    • Anime Raw´s
    • Hentai Raw´s
    • Mangas Raw´s
    • Request
  • Subscribers Area
    • Anime Sub
    • Anime in your Language
    • Hentai +18
    • Raws
    • Request

Find results in...

Find results that contain...


Date Created

  • Start

    End


Last Updated

  • Start

    End


Filter by number of...

Joined

  • Start

    End


Group


About Me

Found 2 results

  1. Segunda Guerra Mundial (1939-1945). Seita y Setsuko son hijos de un oficial de la marina japonesa que viven en Kobe. Un día, durante un bombardeo, no consiguen llegar a tiempo al búnker donde su madre los espera. Cuando después buscan a su madre, la encuentran malherida en la escuela, que ha sido convertida en un hospital de urgencia. Nombre: Hotaru No Haka Año: 1988 Peso: 284 MB Formato: AC3 5.1 Format : AC-3 Format/Info : Audio Coding 3 Commercial name : Dolby Digital Duration : 1 h 28 min Bit rate mode : Constant Bit rate : 448 kb/s Channel(s) : 6 channels Channel layout : L R C LFE Ls Rs Sampling rate : 48.0 kHz Frame rate : 31.250 FPS (1536 SPF) Bit depth : 16 bits Compression mode : Lossy Stream size : 284 MiB (100%) Service kind : Complete Main [Hidden Content]
  2. Segunda Guerra Mundial (1939-1945). Seita y Setsuko son hijos de un oficial de la marina japonesa que viven en Kobe. Un día, durante un bombardeo, no consiguen llegar a tiempo al búnker donde su madre los espera. Cuando después buscan a su madre, la encuentran malherida en la escuela, que ha sido convertida en un hospital de urgencia. Nombre: Hotaru No Haka Año: 1988 Peso: 121 MB Formato: AC3 2.0 Format : AC-3 Format/Info : Audio Coding 3 Format settings, Endianness : Big Duration : 1 h 28 min Bit rate mode : Constant Bit rate : 192 kb/s Channel(s) : 2 channels Channel positions : Front: L R Sampling rate : 48.0 kHz Frame rate : 31.250 FPS (1536 SPF) Bit depth : 16 bits Compression mode : Lossy Stream size : 121 MiB (100%) [Hidden Content]
×
×
  • Create New...