Jump to content
News Ticker
  • News ticker sample
  • News ticker sample

Search the Community

Showing results for tags 'Castillo'.



More search options

  • Search By Tags

    Type tags separated by commas.
  • Search By Author

Content Type


Forums

  • Cyber-Team
    • Web News
    • News and Updates
    • Konnichiwa (Hello) and Sayonara (Goodbye)
    • Tutorials
    • Suggestions / Help
    • Anime in general
    • Manga and Light Novel in general
    • Comics in general
    • Catalogs
    • Audios
    • Off-Topic
    • Downloads Off-Topic
  • Fansub´s
    • Fansubs
    • Cyber-Team
    • Fansubber
  • Download Anime
    • Anime Sub
    • Anime in your Language
    • Anime Games
    • Request
  • Download of Mangas and Artbook
    • Artbook, Mangas, Comics and Light Novels
    • BD and DVD booklet
    • Requests
  • Download of OST-JMusic-AMV
    • OST
    • J-Music
    • AMV
    • Peticiones
  • CT-RAWS
    • Anime Raw´s
    • Hentai Raw´s
    • Mangas and Light Novels Raw´s
    • Request
  • Subscribers Area
    • Anime Sub
    • Anime in your Language
    • Hentai +18
    • Raws
    • Request

Find results in...

Find results that contain...


Date Created

  • Start

    End


Last Updated

  • Start

    End


Filter by number of...

Joined

  • Start

    End


Group


About Me

Found 2 results

  1. Lupin, un elegante y atlético ladrón, y su compañero Jigen viajan al pequeño ducado europeo de Cagliostro. Allí ayudarán a la bella Clarice, que intenta librarse del temible Conde Cagliostro, e intentarán resolver el misterio de un tesoro oculto que data del siglo XV. Nombre: Rupan Sansei: Kariosutoro no Shiro Año: 1979 Peso: 137 MB Formato: AC3 2.0 Format : AC-3 Format/Info : Audio Coding 3 Format settings, Endianness : Big Duration : 1 h 39 min Bit rate mode : Constant Bit rate : 192 kb/s Channel(s) : 2 channels Channel positions : Front: L R Sampling rate : 48.0 kHz Frame rate : 31.250 FPS (1536 SPF) Bit depth : 16 bits Compression mode : Lossy Stream size : 137 MiB (100%) [Hidden Content]
  2. Narra la historia de Sophie, una joven sobre la que pesa una horrible maldición que le confiere el aspecto de una anciana. Sophie decide pedir ayuda al mago Howl, que vive en un castillo ambulante, pero tal vez sea Howl quien necesite la ayuda de Sophie. Nombre: Hauru no Ugoku Shiro Año: 2004 Peso: 382 MB Formato: AC3 5.1 Format : AC-3 Format/Info : Audio Coding 3 Format settings, Endianness : Big Duration : 1 h 59 min Bit rate mode : Constant Bit rate : 448 kb/s Channel(s) : 6 channels Channel positions : Front: L C R, Side: L R, LFE Sampling rate : 48.0 kHz Frame rate : 31.250 FPS (1536 SPF) Bit depth : 16 bits Compression mode : Lossy Stream size : 382 MiB (100%) [Hidden Content]
×
×
  • Create New...